  0
SECTION
  2
HEADER
  9
$ACADVER
  1
AC1024
  9
$ACADMAINTVER
 70
     6
  9
$DWGCODEPAGE
  3
ANSI_1250
  9
$LASTSAVEDBY
  1
Handlowiec
  9
$INSBASE
 10
0.0
 20
0.0
 30
0.0
  9
$EXTMIN
 10
0.0
 20
0.0
 30
0.0
  9
$EXTMAX
 10
409.9999999999998
 20
287.0
 30
0.0
  9
$LIMMIN
 10
0.0
 20
0.0
  9
$LIMMAX
 10
420.0
 20
297.0
  9
$ORTHOMODE
 70
     0
  9
$REGENMODE
 70
     1
  9
$FILLMODE
 70
     1
  9
$QTEXTMODE
 70
     0
  9
$MIRRTEXT
 70
     0
  9
$LTSCALE
 40
0.5
  9
$ATTMODE
 70
     1
  9
$TEXTSIZE
 40
2.5
  9
$TRACEWID
 40
1.0
  9
$TEXTSTYLE
  7
Standard
  9
$CLAYER
  8
XPS
  9
$CELTYPE
  6
ByLayer
  9
$CECOLOR
 62
   256
  9
$CELTSCALE
 40
1.0
  9
$DISPSILH
 70
     0
  9
$DIMSCALE
 40
2.0
  9
$DIMASZ
 40
2.5
  9
$DIMEXO
 40
1.0
  9
$DIMDLI
 40
2.5
  9
$DIMRND
 40
0.0
  9
$DIMDLE
 40
0.0
  9
$DIMEXE
 40
1.25
  9
$DIMTP
 40
0.0
  9
$DIMTM
 40
0.0
  9
$DIMTXT
 40
2.5
  9
$DIMCEN
 40
2.5
  9
$DIMTSZ
 40
0.0
  9
$DIMTOL
 70
     0
  9
$DIMLIM
 70
     0
  9
$DIMTIH
 70
     0
  9
$DIMTOH
 70
     0
  9
$DIMSE1
 70
     0
  9
$DIMSE2
 70
     0
  9
$DIMTAD
 70
     1
  9
$DIMZIN
 70
     8
  9
$DIMBLK
  1

  9
$DIMASO
 70
     1
  9
$DIMSHO
 70
     1
  9
$DIMPOST
  1

  9
$DIMAPOST
  1

  9
$DIMALT
 70
     0
  9
$DIMALTD
 70
     3
  9
$DIMALTF
 40
0.03937007874016
  9
$DIMLFAC
 40
1.0
  9
$DIMTOFL
 70
     1
  9
$DIMTVP
 40
0.0
  9
$DIMTIX
 70
     0
  9
$DIMSOXD
 70
     0
  9
$DIMSAH
 70
     0
  9
$DIMBLK1
  1

  9
$DIMBLK2
  1

  9
$DIMSTYLE
  2
ISO-25
  9
$DIMCLRD
 70
     0
  9
$DIMCLRE
 70
     0
  9
$DIMCLRT
 70
     0
  9
$DIMTFAC
 40
1.0
  9
$DIMGAP
 40
0.5
  9
$DIMJUST
 70
     0
  9
$DIMSD1
 70
     0
  9
$DIMSD2
 70
     0
  9
$DIMTOLJ
 70
     0
  9
$DIMTZIN
 70
     8
  9
$DIMALTZ
 70
     0
  9
$DIMALTTZ
 70
     0
  9
$DIMUPT
 70
     0
  9
$DIMDEC
 70
     2
  9
$DIMTDEC
 70
     2
  9
$DIMALTU
 70
     2
  9
$DIMALTTD
 70
     3
  9
$DIMTXSTY
  7
Standard
  9
$DIMAUNIT
 70
     0
  9
$DIMADEC
 70
     0
  9
$DIMALTRND
 40
0.0
  9
$DIMAZIN
 70
     0
  9
$DIMDSEP
 70
    44
  9
$DIMATFIT
 70
     3
  9
$DIMFRAC
 70
     0
  9
$DIMLDRBLK
  1

  9
$DIMLUNIT
 70
     2
  9
$DIMLWD
 70
    -2
  9
$DIMLWE
 70
    -2
  9
$DIMTMOVE
 70
     0
  9
$DIMFXL
 40
1.0
  9
$DIMFXLON
 70
     0
  9
$DIMJOGANG
 40
0.7853981633974483
  9
$DIMTFILL
 70
     0
  9
$DIMTFILLCLR
 70
     0
  9
$DIMARCSYM
 70
     0
  9
$DIMLTYPE
  6

  9
$DIMLTEX1
  6

  9
$DIMLTEX2
  6

  9
$DIMTXTDIRECTION
 70
     0
  9
$LUNITS
 70
     2
  9
$LUPREC
 70
     4
  9
$SKETCHINC
 40
1.0
  9
$FILLETRAD
 40
0.5
  9
$AUNITS
 70
     0
  9
$AUPREC
 70
     0
  9
$MENU
  1
.
  9
$ELEVATION
 40
0.0
  9
$PELEVATION
 40
0.0
  9
$THICKNESS
 40
0.0
  9
$LIMCHECK
 70
     0
  9
$CHAMFERA
 40
0.0
  9
$CHAMFERB
 40
0.0
  9
$CHAMFERC
 40
0.0
  9
$CHAMFERD
 40
0.0
  9
$SKPOLY
 70
     0
  9
$TDCREATE
 40
2457730.379317489
  9
$TDUCREATE
 40
2457730.337650822
  9
$TDUPDATE
 40
2460003.526414884
  9
$TDUUPDATE
 40
2460003.484748218
  9
$TDINDWG
 40
1.633801794
  9
$TDUSRTIMER
 40
1.6337922106
  9
$USRTIMER
 70
     1
  9
$ANGBASE
 50
0.0
  9
$ANGDIR
 70
     0
  9
$PDMODE
 70
     0
  9
$PDSIZE
 40
0.0
  9
$PLINEWID
 40
0.0
  9
$SPLFRAME
 70
     0
  9
$SPLINETYPE
 70
     6
  9
$SPLINESEGS
 70
     8
  9
$HANDSEED
  5
22F22
  9
$SURFTAB1
 70
     6
  9
$SURFTAB2
 70
     6
  9
$SURFTYPE
 70
     6
  9
$SURFU
 70
     6
  9
$SURFV
 70
     6
  9
$UCSBASE
  2

  9
$UCSNAME
  2

  9
$UCSORG
 10
0.0
 20
0.0
 30
0.0
  9
$UCSXDIR
 10
1.0
 20
0.0
 30
0.0
  9
$UCSYDIR
 10
0.0
 20
1.0
 30
0.0
  9
$UCSORTHOREF
  2

  9
$UCSORTHOVIEW
 70
     0
  9
$UCSORGTOP
 10
0.0
 20
0.0
 30
0.0
  9
$UCSORGBOTTOM
 10
0.0
 20
0.0
 30
0.0
  9
$UCSORGLEFT
 10
0.0
 20
0.0
 30
0.0
  9
$UCSORGRIGHT
 10
0.0
 20
0.0
 30
0.0
  9
$UCSORGFRONT
 10
0.0
 20
0.0
 30
0.0
  9
$UCSORGBACK
 10
0.0
 20
0.0
 30
0.0
  9
$PUCSBASE
  2

  9
$PUCSNAME
  2

  9
$PUCSORG
 10
0.0
 20
0.0
 30
0.0
  9
$PUCSXDIR
 10
1.0
 20
0.0
 30
0.0
  9
$PUCSYDIR
 10
0.0
 20
1.0
 30
0.0
  9
$PUCSORTHOREF
  2

  9
$PUCSORTHOVIEW
 70
     0
  9
$PUCSORGTOP
 10
0.0
 20
0.0
 30
0.0
  9
$PUCSORGBOTTOM
 10
0.0
 20
0.0
 30
0.0
  9
$PUCSORGLEFT
 10
0.0
 20
0.0
 30
0.0
  9
$PUCSORGRIGHT
 10
0.0
 20
0.0
 30
0.0
  9
$PUCSORGFRONT
 10
0.0
 20
0.0
 30
0.0
  9
$PUCSORGBACK
 10
0.0
 20
0.0
 30
0.0
  9
$USERI1
 70
     0
  9
$USERI2
 70
     0
  9
$USERI3
 70
     0
  9
$USERI4
 70
     0
  9
$USERI5
 70
     0
  9
$USERR1
 40
0.0
  9
$USERR2
 40
0.0
  9
$USERR3
 40
0.0
  9
$USERR4
 40
0.0
  9
$USERR5
 40
0.0
  9
$WORLDVIEW
 70
     1
  9
$SHADEDGE
 70
     3
  9
$SHADEDIF
 70
    70
  9
$TILEMODE
 70
     1
  9
$MAXACTVP
 70
    64
  9
$PINSBASE
 10
0.0
 20
0.0
 30
0.0
  9
$PLIMCHECK
 70
     0
  9
$PEXTMIN
 10
1.0
 20
1.000000000000057
 30
0.0
  9
$PEXTMAX
 10
407.4
 20
260.4
 30
0.0
  9
$PLIMMIN
 10
-5.8
 20
-17.8
  9
$PLIMMAX
 10
414.2
 20
279.2
  9
$UNITMODE
 70
     0
  9
$VISRETAIN
 70
     1
  9
$PLINEGEN
 70
     0
  9
$PSLTSCALE
 70
     1
  9
$TREEDEPTH
 70
  3020
  9
$CMLSTYLE
  2
Standard
  9
$CMLJUST
 70
     0
  9
$CMLSCALE
 40
20.0
  9
$PROXYGRAPHICS
 70
     1
  9
$MEASUREMENT
 70
     1
  9
$CELWEIGHT
370
    -1
  9
$ENDCAPS
280
     0
  9
$JOINSTYLE
280
     0
  9
$LWDISPLAY
290
     1
  9
$INSUNITS
 70
     4
  9
$HYPERLINKBASE
  1

  9
$STYLESHEET
  1

  9
$XEDIT
290
     1
  9
$CEPSNTYPE
380
     0
  9
$PSTYLEMODE
290
     1
  9
$FINGERPRINTGUID
  2
{78B0F746-B111-4909-95E5-2EF5CBA97683}
  9
$VERSIONGUID
  2
{802A1128-578F-4476-99F9-9F88F1E6F721}
  9
$EXTNAMES
290
     1
  9
$PSVPSCALE
 40
0.0
  9
$OLESTARTUP
290
     0
  9
$SORTENTS
280
   127
  9
$INDEXCTL
280
     0
  9
$HIDETEXT
280
     1
  9
$XCLIPFRAME
280
     0
  9
$HALOGAP
280
     0
  9
$OBSCOLOR
 70
   257
  9
$OBSLTYPE
280
     0
  9
$INTERSECTIONDISPLAY
280
     0
  9
$INTERSECTIONCOLOR
 70
   257
  9
$DIMASSOC
280
     2
  9
$PROJECTNAME
  1

  9
$CAMERADISPLAY
290
     0
  9
$LENSLENGTH
 40
50.0
  9
$CAMERAHEIGHT
 40
0.0
  9
$STEPSPERSEC
 40
2.0
  9
$STEPSIZE
 40
6.0
  9
$3DDWFPREC
 40
2.0
  9
$PSOLWIDTH
 40
5.0
  9
$PSOLHEIGHT
 40
80.0
  9
$LOFTANG1
 40
1.570796326794897
  9
$LOFTANG2
 40
1.570796326794897
  9
$LOFTMAG1
 40
0.0
  9
$LOFTMAG2
 40
0.0
  9
$LOFTPARAM
 70
     7
  9
$LOFTNORMALS
280
     1
  9
$LATITUDE
 40
37.795
  9
$LONGITUDE
 40
-122.394
  9
$NORTHDIRECTION
 40
0.0
  9
$TIMEZONE
 70
 -8000
  9
$LIGHTGLYPHDISPLAY
280
     1
  9
$TILEMODELIGHTSYNCH
280
     1
  9
$CMATERIAL
347
EC
  9
$SOLIDHIST
280
     1
  9
$SHOWHIST
280
     1
  9
$DWFFRAME
280
     2
  9
$DGNFRAME
280
     0
  9
$REALWORLDSCALE
290
     1
  9
$INTERFERECOLOR
 62
   256
  9
$INTERFEREOBJVS
345
F9
  9
$INTERFEREVPVS
346
F6
  9
$CSHADOW
280
     0
  9
$SHADOWPLANELOCATION
 40
0.0
  0
ENDSEC
  0
SECTION
  2
CLASSES
  0
CLASS
  1
ACDBDICTIONARYWDFLT
  2
AcDbDictionaryWithDefault
  3
ObjectDBX Classes
 90
        0
 91
        5
280
     0
281
     0
  0
CLASS
  1
ACDBPLACEHOLDER
  2
AcDbPlaceHolder
  3
ObjectDBX Classes
 90
        0
 91
        1
280
     0
281
     0
  0
CLASS
  1
LAYOUT
  2
AcDbLayout
  3
ObjectDBX Classes
 90
        0
 91
        1
280
     0
281
     0
  0
CLASS
  1
DICTIONARYVAR
  2
AcDbDictionaryVar
  3
ObjectDBX Classes
 90
        0
 91
        5
280
     0
281
     0
  0
CLASS
  1
TABLESTYLE
  2
AcDbTableStyle
  3
ObjectDBX Classes
 90
     4095
 91
        5
280
     0
281
     0
  0
CLASS
  1
MATERIAL
  2
AcDbMaterial
  3
ObjectDBX Classes
 90
     1153
 91
        5
280
     0
281
     0
  0
CLASS
  1
VISUALSTYLE
  2
AcDbVisualStyle
  3
ObjectDBX Classes
 90
     4095
 91
        5
280
     0
281
     0
  0
CLASS
  1
SCALE
  2
AcDbScale
  3
ObjectDBX Classes
 90
     1153
 91
        5
280
     0
281
     0
  0
CLASS
  1
MLEADERSTYLE
  2
AcDbMLeaderStyle
  3
ACDB_MLEADERSTYLE_CLASS
 90
     4095
 91
        5
280
     0
281
     0
  0
CLASS
  1
CELLSTYLEMAP
  2
AcDbCellStyleMap
  3
ObjectDBX Classes
 90
     1152
 91
        5
280
     0
281
     0
  0
CLASS
  1
EXACXREFPANELOBJECT
  2
ExAcXREFPanelObject
  3
EXAC_ESW
 90
     1025
 91
        1
280
     1
281
     0
  0
CLASS
  1
NPOCOLLECTION
  2
AcDbImpNonPersistentObjectsCollection
  3
ObjectDBX Classes
 90
     1153
 91
        1
280
     1
281
     0
  0
CLASS
  1
LAYER_INDEX
  2
AcDbLayerIndex
  3
ObjectDBX Classes
 90
        0
 91
        5
280
     0
281
     0
  0
CLASS
  1
SPATIAL_INDEX
  2
AcDbSpatialIndex
  3
AutoCAD 2000
 90
        0
 91
        5
280
     0
281
     0
  0
CLASS
  1
IDBUFFER
  2
AcDbIdBuffer
  3
ObjectDBX Classes
 90
        0
 91
        5
280
     0
281
     0
  0
CLASS
  1
ACDBSECTIONVIEWSTYLE
  2
AcDbSectionViewStyle
  3
ObjectDBX Classes
 90
     1025
 91
        2
280
     1
281
     0
  0
CLASS
  1
ACDBDETAILVIEWSTYLE
  2
AcDbDetailViewStyle
  3
ObjectDBX Classes
 90
     1025
 91
        2
280
     1
281
     0
  0
CLASS
  1
SORTENTSTABLE
  2
AcDbSortentsTable
  3
ObjectDBX Classes
 90
        0
 91
        5
280
     0
281
     0
  0
CLASS
  1
PLOTSETTINGS
  2
AcDbPlotSettings
  3
ObjectDBX Classes
 90
        0
 91
        4
280
     0
281
     0
  0
CLASS
  1
DIMASSOC
  2
AcDbDimAssoc
  3
"AcDbDimAssoc|Product Desc:     AcDim ARX App For Dimension|Company:          Autodesk, Inc.|WEB Address:      www.autodesk.com"
 90
        0
 91
        5
280
     0
281
     0
  0
CLASS
  1
ACDB_HATCHSCALECONTEXTDATA_CLASS
  2
AcDbHatchScaleContextData
  3
ObjectDBX Classes
 90
     1153
 91
        5
280
     0
281
     0
  0
CLASS
  1
MULTILEADER
  2
AcDbMLeader
  3
ACDB_MLEADER_CLASS
 90
     1025
 91
        4
280
     0
281
     1
  0
CLASS
  1
ACDB_MLEADEROBJECTCONTEXTDATA_CLASS
  2
AcDbMLeaderObjectContextData
  3
ObjectDBX Classes
 90
     1153
 91
        4
280
     0
281
     0
  0
CLASS
  1
IMAGEDEF
  2
AcDbRasterImageDef
  3
ISM
 90
        0
 91
        4
280
     0
281
     0
  0
CLASS
  1
IMAGE
  2
AcDbRasterImage
  3
ISM
 90
      127
 91
        5
280
     0
281
     1
  0
CLASS
  1
IMAGEDEF_REACTOR
  2
AcDbRasterImageDefReactor
  3
ISM
 90
        1
 91
        4
280
     0
281
     0
  0
ENDSEC
  0
SECTION
  2
TABLES
  0
TABLE
  2
VPORT
  5
8
330
0
100
AcDbSymbolTable
 70
     1
  0
VPORT
  5
EA
330
8
100
AcDbSymbolTableRecord
100
AcDbViewportTableRecord
  2
*Active
 70
     0
 10
0.0
 20
0.0
 11
1.0
 21
1.0
 12
284.9214882051961
 22
162.0906807791361
 13
0.0
 23
0.0
 14
10.0
 24
10.0
 15
10.0
 25
10.0
 16
0.0
 26
0.0
 36
1.0
 17
0.0
 27
0.0
 37
0.0
 40
462.2160919540231
 41
1.984693877551021
 42
50.0
 43
0.0
 44
0.0
 50
0.0
 51
0.0
 71
     0
 72
  1000
 73
     1
 74
     3
 75
     0
 76
     0
 77
     0
 78
     0
281
     0
 65
     1
110
0.0
120
0.0
130
0.0
111
1.0
121
0.0
131
0.0
112
0.0
122
1.0
132
0.0
 79
     0
146
0.0
 60
     3
 61
     5
292
     1
282
     1
141
0.0
142
0.0
 63
   256
1001
ACAD_NAV_VCDISPLAY
1070
     3
  0
ENDTAB
  0
TABLE
  2
LTYPE
  5
5
330
0
100
AcDbSymbolTable
 70
     2
  0
LTYPE
  5
14
330
5
100
AcDbSymbolTableRecord
100
AcDbLinetypeTableRecord
  2
ByBlock
 70
     0
  3

 72
    65
 73
     0
 40
0.0
  0
LTYPE
  5
15
330
5
100
AcDbSymbolTableRecord
100
AcDbLinetypeTableRecord
  2
ByLayer
 70
     0
  3

 72
    65
 73
     0
 40
0.0
  0
LTYPE
  5
16
330
5
100
AcDbSymbolTableRecord
100
AcDbLinetypeTableRecord
  2
Continuous
 70
     0
  3
Solid line
 72
    65
 73
     0
 40
0.0
  0
LTYPE
  5
16858
330
5
100
AcDbSymbolTableRecord
100
AcDbLinetypeTableRecord
  2
HIDDEN
 70
     0
  3
Hidden __ __ __ __ __ __ __ __ __ __ __ __ __ _
 72
    65
 73
     2
 40
9.524999999999999
 49
6.35
 74
     0
 49
-3.175
 74
     0
  0
ENDTAB
  0
TABLE
  2
LAYER
  5
2
102
{ACAD_XDICTIONARY
360
1FF
102
}
330
0
100
AcDbSymbolTable
 70
    20
  0
LAYER
  5
10
330
2
100
AcDbSymbolTableRecord
100
AcDbLayerTableRecord
  2
0
 70
     0
 62
     7
  6
Continuous
370
    -3
390
F
347
EE
1001
AcAecLayerStandard
1000

1000

1001
ACCMTRANSPARENCY
1071
 33554687
  0
LAYER
  5
262
330
2
100
AcDbSymbolTableRecord
100
AcDbLayerTableRecord
  2
Opis
 70
     0
 62
     7
  6
Continuous
370
    -3
390
F
347
EE
1001
AcAecLayerStandard
1000

1000

1001
ACCMTRANSPARENCY
1071
 33554687
  0
LAYER
  5
267
330
2
100
AcDbSymbolTableRecord
100
AcDbLayerTableRecord
  2
XPS
 70
     0
 62
   254
  6
Continuous
370
    -3
390
F
347
EE
1001
AcAecLayerStandard
1000

1000

1001
ACCMTRANSPARENCY
1071
 33554687
  0
LAYER
  5
268
330
2
100
AcDbSymbolTableRecord
100
AcDbLayerTableRecord
  2
Klinaryt
 70
     0
 62
     7
  6
Continuous
370
    -3
390
F
347
EE
1001
AcAecLayerStandard
1000

1000

1001
ACCMTRANSPARENCY
1071
 33554687
  0
LAYER
  5
269
330
2
100
AcDbSymbolTableRecord
100
AcDbLayerTableRecord
  2
Listwa T
 70
     0
 62
   153
  6
Continuous
370
    -3
390
F
347
EE
1001
AcAecLayerStandard
1000

1000

1001
ACCMTRANSPARENCY
1071
 33554687
  0
LAYER
  5
26A
330
2
100
AcDbSymbolTableRecord
100
AcDbLayerTableRecord
  2
Taśma rozprężna
 70
     0
 62
   251
  6
Continuous
370
    -3
390
F
347
EE
1001
AcAecLayerStandard
1000

1000

1001
ACCMTRANSPARENCY
1071
 33554687
  0
LAYER
  5
26B
330
2
100
AcDbSymbolTableRecord
100
AcDbLayerTableRecord
  2
Szyna stalowa
 70
     0
 62
     9
  6
Continuous
370
    -3
390
F
347
EE
1001
AcAecLayerStandard
1000

1000

1001
ACCMTRANSPARENCY
1071
 33554687
  0
LAYER
  5
26C
330
2
100
AcDbSymbolTableRecord
100
AcDbLayerTableRecord
  2
Wymiar
 70
     0
 62
     7
  6
Continuous
370
    -3
390
F
347
EE
1001
AcAecLayerStandard
1000

1000

1001
ACCMTRANSPARENCY
1071
 33554687
  0
LAYER
  5
26D
330
2
100
AcDbSymbolTableRecord
100
AcDbLayerTableRecord
  2
PCV
 70
     0
 62
   254
  6
Continuous
370
    -3
390
F
347
EE
1001
AcAecLayerStandard
1000

1000

1001
ACCMTRANSPARENCY
1071
 33554687
  0
LAYER
  5
26E
330
2
100
AcDbSymbolTableRecord
100
AcDbLayerTableRecord
  2
Aluminium
 70
     0
 62
   254
  6
Continuous
370
    -3
390
F
347
EE
1001
AcAecLayerStandard
1000

1000

1001
ACCMTRANSPARENCY
1071
 33554687
  0
LAYER
  5
270
330
2
100
AcDbSymbolTableRecord
100
AcDbLayerTableRecord
  2
Uszczzelka
 70
     0
 62
    18
  6
Continuous
370
    -3
390
F
347
EE
1001
AcAecLayerStandard
1000

1000

1001
ACCMTRANSPARENCY
1071
 33554687
  0
LAYER
  5
FE6
330
2
100
AcDbSymbolTableRecord
100
AcDbLayerTableRecord
  2
Drewno
 70
     0
 62
    42
  6
Continuous
370
    -3
390
F
347
EE
1001
AcAecLayerStandard
1000

1000

1001
ACCMTRANSPARENCY
1071
 33554687
  0
LAYER
  5
19DF
330
2
100
AcDbSymbolTableRecord
100
AcDbLayerTableRecord
  2
Klejo-uszczelniacz
 70
     0
 62
   252
  6
Continuous
370
    -3
390
F
347
EE
1001
AcAecLayerStandard
1000

1000

1001
ACCMTRANSPARENCY
1071
 33554687
  0
LAYER
  5
5A03
330
2
100
AcDbSymbolTableRecord
100
AcDbLayerTableRecord
  2
Defpoints
 70
     0
 62
     7
  6
Continuous
290
     0
370
    -3
390
F
347
EE
1001
AcAecLayerStandard
1000

1000

1001
ACCMTRANSPARENCY
1071
 33554687
  0
LAYER
  5
165CD
330
2
100
AcDbSymbolTableRecord
100
AcDbLayerTableRecord
  2
Przerywana
 70
     0
 62
     7
  6
HIDDEN
370
    -3
390
F
347
EE
1001
AcAecLayerStandard
1000

1000

1001
ACCMTRANSPARENCY
1071
 33554687
  0
LAYER
  5
1A11D
330
2
100
AcDbSymbolTableRecord
100
AcDbLayerTableRecord
  2
Logo Klinar
 70
     0
 62
     7
  6
Continuous
370
    -3
390
F
347
EE
1001
AcAecLayerStandard
1000

1000

1001
ACCMTRANSPARENCY
1071
 33554687
  0
LAYER
  5
1E047
330
2
100
AcDbSymbolTableRecord
100
AcDbLayerTableRecord
  2
Listwa zaczepowa
 70
     0
 62
   153
  6
Continuous
370
    -3
390
F
347
EE
1001
AcAecLayerStandard
1000

1000

1001
ACCMTRANSPARENCY
1071
 33554687
  0
LAYER
  5
1E04C
330
2
100
AcDbSymbolTableRecord
100
AcDbLayerTableRecord
  2
EPS
 70
     0
 62
     7
  6
Continuous
370
    -3
390
F
347
EE
1001
AcAecLayerStandard
1000

1000

1001
ACCMTRANSPARENCY
1071
 33554687
  0
LAYER
  5
1E04F
330
2
100
AcDbSymbolTableRecord
100
AcDbLayerTableRecord
  2
Tabela
 70
     0
 62
     7
  6
Continuous
370
    -3
390
F
347
EE
1001
AcAecLayerStandard
1000

1000

1001
ACCMTRANSPARENCY
1071
 33554687
  0
LAYER
  5
1E07E
330
2
100
AcDbSymbolTableRecord
100
AcDbLayerTableRecord
  2
Stal
 70
     0
 62
     9
  6
Continuous
370
    -3
390
F
347
EE
1001
AcAecLayerStandard
1000

1000

1001
ACCMTRANSPARENCY
1071
 33554687
  0
ENDTAB
  0
TABLE
  2
STYLE
  5
3
330
0
100
AcDbSymbolTable
 70
     1
  0
STYLE
  5
11
330
3
100
AcDbSymbolTableRecord
100
AcDbTextStyleTableRecord
  2
Standard
 70
     0
 40
0.0
 41
1.0
 50
0.0
 71
     0
 42
2.5
  3

  4

1001
ACAD
1000
Arial
1071
       34
  0
ENDTAB
  0
TABLE
  2
VIEW
  5
6
330
0
100
AcDbSymbolTable
 70
     0
  0
ENDTAB
  0
TABLE
  2
UCS
  5
7
330
0
100
AcDbSymbolTable
 70
     0
  0
ENDTAB
  0
TABLE
  2
APPID
  5
9
330
0
100
AcDbSymbolTable
 70
    14
  0
APPID
  5
12
330
9
100
AcDbSymbolTableRecord
100
AcDbRegAppTableRecord
  2
ACAD
 70
     0
  0
APPID
  5
9E
330
9
100
AcDbSymbolTableRecord
100
AcDbRegAppTableRecord
  2
ACAD_PSEXT
 70
     0
  0
APPID
  5
134
330
9
100
AcDbSymbolTableRecord
100
AcDbRegAppTableRecord
  2
AcadAnnotative
 70
     0
  0
APPID
  5
165
330
9
100
AcDbSymbolTableRecord
100
AcDbRegAppTableRecord
  2
ACAD_MLEADERVER
 70
     0
  0
APPID
  5
217
330
9
100
AcDbSymbolTableRecord
100
AcDbRegAppTableRecord
  2
ACAD_NAV_VCDISPLAY
 70
     0
  0
APPID
  5
265
330
9
100
AcDbSymbolTableRecord
100
AcDbRegAppTableRecord
  2
AcAecLayerStandard
 70
     0
  0
APPID
  5
A01
330
9
100
AcDbSymbolTableRecord
100
AcDbRegAppTableRecord
  2
ACAD_DSTYLE_DIMBREAK
 70
     0
  0
APPID
  5
26C3
330
9
100
AcDbSymbolTableRecord
100
AcDbRegAppTableRecord
  2
AcDbBlockRepETag
 70
     0
  0
APPID
  5
1540A
330
9
100
AcDbSymbolTableRecord
100
AcDbRegAppTableRecord
  2
ACCMTRANSPARENCY
 70
     0
  0
APPID
  5
228AC
330
9
100
AcDbSymbolTableRecord
100
AcDbRegAppTableRecord
  2
ACAD_DSTYLE_DIMEXT_ENABLED
 70
     0
  0
APPID
  5
228AD
330
9
100
AcDbSymbolTableRecord
100
AcDbRegAppTableRecord
  2
ACAD_DSTYLE_DIMEXT_LENGTH
 70
     0
  0
APPID
  5
228AE
330
9
100
AcDbSymbolTableRecord
100
AcDbRegAppTableRecord
  2
ACAD_DSTYLE_DIM_EXT1_LINETYPE
 70
     0
  0
APPID
  5
228AF
330
9
100
AcDbSymbolTableRecord
100
AcDbRegAppTableRecord
  2
ACAD_DSTYLE_DIM_EXT2_LINETYPE
 70
     0
  0
APPID
  5
22B4D
330
9
100
AcDbSymbolTableRecord
100
AcDbRegAppTableRecord
  2
PLOTTRANSPARENCY
 70
     0
  0
ENDTAB
  0
TABLE
  2
DIMSTYLE
  5
A
330
0
100
AcDbSymbolTable
 70
     3
100
AcDbDimStyleTable
  0
DIMSTYLE
105
27
102
{ACAD_REACTORS
330
22D58
330
22D67
330
22D74
330
22D82
330
22DED
330
22DF0
330
22DF1
330
22DF3
102
}
330
A
100
AcDbSymbolTableRecord
100
AcDbDimStyleTableRecord
  2
ISO-25
 70
     0
 40
2.0
 41
2.5
 42
1.0
 43
2.5
 44
1.25
 49
1.25
290
     1
 73
     0
 74
     0
 77
     1
 78
     8
140
2.5
141
2.5
143
0.03937007874016
147
0.5
171
     3
172
     1
178
     0
271
     2
272
     2
274
     3
278
    44
283
     0
284
     8
340
11
346
15
347
15
1001
ACAD_DSTYLE_DIMBREAK
1070
   391
1040
2.5
  0
DIMSTYLE
105
1BACB
330
A
100
AcDbSymbolTableRecord
100
AcDbDimStyleTableRecord
  2
Standard
 70
     0
178
     0
340
11
  0
DIMSTYLE
105
22B48
330
A
100
AcDbSymbolTableRecord
100
AcDbDimStyleTableRecord
  2
ISO-25 - listwa
 70
     0
 40
0.7
 41
2.5
 42
1.0
 43
2.5
 44
1.25
 49
1.25
 73
     0
 74
     0
 77
     1
 78
     8
140
2.5
141
2.5
143
0.03937007874016
147
0.5
171
     3
172
     1
178
     0
271
     2
272
     2
274
     3
278
    44
283
     0
284
     8
340
11
346
15
347
15
1001
ACAD_DSTYLE_DIMBREAK
1070
   391
1040
2.5
1001
AcadAnnotative
1000
AnnotativeData
1002
{
1070
     1
1070
     0
1002
}
  0
ENDTAB
  0
TABLE
  2
BLOCK_RECORD
  5
1
330
0
100
AcDbSymbolTable
 70
    34
  0
BLOCK_RECORD
  5
1F
102
{ACAD_XDICTIONARY
360
17DE
102
}
330
1
100
AcDbSymbolTableRecord
100
AcDbBlockTableRecord
  2
*Model_Space
340
22
 70
     0
280
     1
281
     0
  0
BLOCK_RECORD
  5
1DFC5
330
1
100
AcDbSymbolTableRecord
100
AcDbBlockTableRecord
  2
*Paper_Space
340
1DFC6
 70
     0
280
     1
281
     0
  0
BLOCK_RECORD
  5
16686
330
1
100
AcDbSymbolTableRecord
100
AcDbBlockTableRecord
  2
_ClosedBlank
340
0
 70
     0
280
     1
281
     0
  0
BLOCK_RECORD
  5
22B25
330
1
100
AcDbSymbolTableRecord
100
AcDbBlockTableRecord
  2
*D18
340
0
 70
     0
280
     1
281
     0
  0
BLOCK_RECORD
  5
22B31
330
1
100
AcDbSymbolTableRecord
100
AcDbBlockTableRecord
  2
*D19
340
0
 70
     0
280
     1
281
     0
  0
BLOCK_RECORD
  5
22D5B
330
1
100
AcDbSymbolTableRecord
100
AcDbBlockTableRecord
  2
*D21
340
0
 70
     0
280
     1
281
     0
  0
BLOCK_RECORD
  5
22D68
330
1
100
AcDbSymbolTableRecord
100
AcDbBlockTableRecord
  2
*D22
340
0
 70
     0
280
     1
281
     0
  0
BLOCK_RECORD
  5
22D75
330
1
100
AcDbSymbolTableRecord
100
AcDbBlockTableRecord
  2
*D23
340
0
 70
     0
280
     1
281
     0
  0
BLOCK_RECORD
  5
22D83
330
1
100
AcDbSymbolTableRecord
100
AcDbBlockTableRecord
  2
*D24
340
0
 70
     0
280
     1
281
     0
  0
BLOCK_RECORD
  5
22D91
330
1
100
AcDbSymbolTableRecord
100
AcDbBlockTableRecord
  2
*D25
340
0
 70
     0
280
     1
281
     0
  0
BLOCK_RECORD
  5
22D9D
330
1
100
AcDbSymbolTableRecord
100
AcDbBlockTableRecord
  2
*D26
340
0
 70
     0
280
     1
281
     0
  0
BLOCK_RECORD
  5
22DA9
330
1
100
AcDbSymbolTableRecord
100
AcDbBlockTableRecord
  2
*D27
340
0
 70
     0
280
     1
281
     0
  0
BLOCK_RECORD
  5
22DB5
330
1
100
AcDbSymbolTableRecord
100
AcDbBlockTableRecord
  2
*D28
340
0
 70
     0
280
     1
281
     0
  0
BLOCK_RECORD
  5
22DF4
330
1
100
AcDbSymbolTableRecord
100
AcDbBlockTableRecord
  2
*D29
340
0
 70
     0
280
     1
281
     0
  0
BLOCK_RECORD
  5
22E00
330
1
100
AcDbSymbolTableRecord
100
AcDbBlockTableRecord
  2
*D30
340
0
 70
     0
280
     1
281
     0
  0
BLOCK_RECORD
  5
22E0C
330
1
100
AcDbSymbolTableRecord
100
AcDbBlockTableRecord
  2
*D31
340
0
 70
     0
280
     1
281
     0
  0
BLOCK_RECORD
  5
22E18
330
1
100
AcDbSymbolTableRecord
100
AcDbBlockTableRecord
  2
*D32
340
0
 70
     0
280
     1
281
     0
  0
ENDTAB
  0
ENDSEC
  0
SECTION
  2
BLOCKS
  0
BLOCK
  5
20
330
1F
100
AcDbEntity
  8
0
100
AcDbBlockBegin
  2
*Model_Space
 70
     0
 10
0.0
 20
0.0
 30
0.0
  3
*Model_Space
  1

  0
ENDBLK
  5
21
330
1F
100
AcDbEntity
  8
0
100
AcDbBlockEnd
  0
BLOCK
  5
1DFC7
330
1DFC5
100
AcDbEntity
 67
     1
  8
0
100
AcDbBlockBegin
  2
*Paper_Space
 70
     0
 10
0.0
 20
0.0
 30
0.0
  3
*Paper_Space
  1
Acad:XRef
  0
ENDBLK
  5
1DFC8
330
1DFC5
100
AcDbEntity
 67
     1
  8
0
100
AcDbBlockEnd
  0
BLOCK
  5
16687
330
16686
100
AcDbEntity
  8
0
100
AcDbBlockBegin
  2
_ClosedBlank
 70
     0
 10
0.0
 20
0.0
 30
0.0
  3
_ClosedBlank
  1
Acad:XRef
  0
LINE
  5
16689
330
16686
100
AcDbEntity
  8
0
  6
ByBlock
 62
     0
370
    -2
100
AcDbLine
 10
-1.0
 20
0.166667
 30
0.0
 11
0.0
 21
0.0
 31
0.0
  0
LINE
  5
1668A
330
16686
100
AcDbEntity
  8
0
  6
ByBlock
 62
     0
370
    -2
100
AcDbLine
 10
0.0
 20
0.0
 30
0.0
 11
-1.0
 21
-0.166667
 31
0.0
  0
LINE
  5
1668B
330
16686
100
AcDbEntity
  8
0
  6
ByBlock
 62
     0
370
    -2
100
AcDbLine
 10
-1.0
 20
0.166667
 30
0.0
 11
-1.0
 21
-0.166667
 31
0.0
  0
ENDBLK
  5
16688
330
16686
100
AcDbEntity
  8
0
100
AcDbBlockEnd
  0
BLOCK
  5
22B2F
330
22B25
100
AcDbEntity
  8
XPS
100
AcDbBlockBegin
  2
*D18
 70
     1
 10
0.0
 20
0.0
 30
0.0
  3
*D18
  1
Acad:XRef
  0
LINE
  5
22B26
330
22B25
100
AcDbEntity
  8
Wymiar
 62
     0
370
    -2
100
AcDbLine
 10
269.7988408590363
 20
120.5976565829221
 30
0.0
 11
274.7988408590363
 21
120.5976565829221
 31
0.0
  0
LINE
  5
22B27
330
22B25
100
AcDbEntity
  8
Wymiar
 62
     0
370
    -2
100
AcDbLine
 10
274.2988408590363
 20
160.5976565829221
 30
0.0
 11
274.7988408590363
 21
160.5976565829221
 31
0.0
  0
LINE
  5
22B28
330
22B25
100
AcDbEntity
  8
Wymiar
 62
     0
370
    -2
100
AcDbLine
 10
272.2988408590363
 20
160.5976565829221
 30
0.0
 11
272.2988408590363
 21
218.5389935542728
 31
0.0
  0
LINE
  5
22B29
330
22B25
100
AcDbEntity
  8
Wymiar
 62
     0
370
    -2
100
AcDbLine
 10
272.2988408590363
 20
125.5976565829221
 30
0.0
 11
272.2988408590363
 21
155.5976565829221
 31
0.0
  0
SOLID
  5
22B2A
330
22B25
100
AcDbEntity
  8
Wymiar
 62
     0
100
AcDbTrace
 10
271.465507525703
 20
125.5976565829221
 30
0.0
 11
273.1321741923696
 21
125.5976565829221
 31
0.0
 12
272.2988408590363
 22
120.5976565829221
 32
0.0
 13
272.2988408590363
 23
120.5976565829221
 33
0.0
  0
SOLID
  5
22B2B
330
22B25
100
AcDbEntity
  8
Wymiar
 62
     0
100
AcDbTrace
 10
273.1321741923696
 20
155.5976565829221
 30
0.0
 11
271.465507525703
 21
155.5976565829221
 31
0.0
 12
272.2988408590363
 22
160.5976565829221
 32
0.0
 13
272.2988408590363
 23
160.5976565829221
 33
0.0
  0
MTEXT
  5
22B2C
330
22B25
100
AcDbEntity
  8
Wymiar
 62
     0
100
AcDbMText
 10
268.7459759204279
 20
192.0683250685975
 30
0.0
 40
5.0
 41
0.0
 46
0.0
 71
     5
 72
     1
  1
H widoczne = 40
 11
0.0
 21
1.0
 31
0.0
 73
     1
 44
1.0
  0
POINT
  5
22B2D
330
22B25
100
AcDbEntity
  8
Defpoints
 62
     0
100
AcDbPoint
 10
225.9988408590575
 20
120.5976565829221
 30
0.0
  0
POINT
  5
22B2E
330
22B25
100
AcDbEntity
  8
Defpoints
 62
     0
100
AcDbPoint
 10
272.2988408590363
 20
160.5976565829221
 30
0.0
  0
POINT
  5
22B77
330
22B25
100
AcDbEntity
  8
Defpoints
 62
     0
100
AcDbPoint
 10
272.2988408590363
 20
160.5976565829221
 30
0.0
  0
ENDBLK
  5
22B30
330
22B25
100
AcDbEntity
  8
XPS
100
AcDbBlockEnd
  0
BLOCK
  5
22B3B
330
22B31
100
AcDbEntity
  8
XPS
100
AcDbBlockBegin
  2
*D19
 70
     1
 10
0.0
 20
0.0
 30
0.0
  3
*D19
  1
Acad:XRef
  0
LINE
  5
22B32
330
22B31
100
AcDbEntity
  8
Wymiar
 62
     0
370
    -2
100
AcDbLine
 10
164.798840859035
 20
113.0976565829221
 30
0.0
 11
164.798840859035
 21
108.0976565829221
 31
0.0
  0
LINE
  5
22B33
330
22B31
100
AcDbEntity
  8
Wymiar
 62
     0
370
    -2
100
AcDbLine
 10
225.9988408590575
 20
113.0976565829221
 30
0.0
 11
225.9988408590575
 21
108.0976565829221
 31
0.0
  0
LINE
  5
22B34
330
22B31
100
AcDbEntity
  8
Wymiar
 62
     0
370
    -2
100
AcDbLine
 10
169.798840859035
 20
110.5976565829221
 30
0.0
 11
220.9988408590575
 21
110.5976565829221
 31
0.0
  0
SOLID
  5
22B35
330
22B31
100
AcDbEntity
  8
Wymiar
 62
     0
100
AcDbTrace
 10
169.798840859035
 20
111.4309899162555
 30
0.0
 11
169.798840859035
 21
109.7643232495888
 31
0.0
 12
164.798840859035
 22
110.5976565829221
 32
0.0
 13
164.798840859035
 23
110.5976565829221
 33
0.0
  0
SOLID
  5
22B36
330
22B31
100
AcDbEntity
  8
Wymiar
 62
     0
100
AcDbTrace
 10
220.9988408590575
 20
109.7643232495888
 30
0.0
 11
220.9988408590575
 21
111.4309899162555
 31
0.0
 12
225.9988408590575
 22
110.5976565829221
 32
0.0
 13
225.9988408590575
 23
110.5976565829221
 33
0.0
  0
MTEXT
  5
22B37
330
22B31
100
AcDbEntity
  8
Wymiar
 62
     0
100
AcDbMText
 10
195.3988408590462
 20
114.6024314806029
 30
0.0
 40
5.0
 41
0.0
 46
0.0
 71
     5
 72
     1
  1
61,2
 73
     1
 44
1.0
  0
POINT
  5
22B38
330
22B31
100
AcDbEntity
  8
Defpoints
 62
     0
100
AcDbPoint
 10
164.798840859035
 20
120.5976565829221
 30
0.0
  0
POINT
  5
22B39
330
22B31
100
AcDbEntity
  8
Defpoints
 62
     0
100
AcDbPoint
 10
225.9988408590575
 20
120.5976565829221
 30
0.0
  0
POINT
  5
22B3A
330
22B31
100
AcDbEntity
  8
Defpoints
 62
     0
100
AcDbPoint
 10
225.9988408590575
 20
110.5976565829221
 30
0.0
  0
ENDBLK
  5
22B3C
330
22B31
100
AcDbEntity
  8
XPS
100
AcDbBlockEnd
  0
BLOCK
  5
22D5C
330
22D5B
100
AcDbEntity
  8
Wymiar
100
AcDbBlockBegin
  2
*D21
 70
     1
 10
0.0
 20
0.0
 30
0.0
  3
*D21
  1
Acad:XRef
  0
LINE
  5
22D5D
330
22D5B
100
AcDbEntity
  8
Wymiar
 62
     0
370
    -2
100
AcDbLine
 10
554.6444463476686
 20
840.5529189940305
 30
0.0
 11
554.6444463476686
 21
829.9279189940305
 31
0.0
  0
LINE
  5
22D5E
330
22D5B
100
AcDbEntity
  8
Wymiar
 62
     0
370
    -2
100
AcDbLine
 10
623.3444463476911
 20
840.5529189940305
 30
0.0
 11
623.3444463476911
 21
829.9279189940305
 31
0.0
  0
LINE
  5
22D5F
330
22D5B
100
AcDbEntity
  8
Wymiar
 62
     0
370
    -2
100
AcDbLine
 10
557.1444463476686
 20
831.1779189940305
 30
0.0
 11
620.8444463476911
 21
831.1779189940305
 31
0.0
  0
SOLID
  5
22D60
330
22D5B
100
AcDbEntity
  8
Wymiar
 62
     0
100
AcDbTrace
 10
557.1444463476686
 20
831.5945856606971
 30
0.0
 11
557.1444463476686
 21
830.7612523273639
 31
0.0
 12
554.6444463476686
 22
831.1779189940305
 32
0.0
 13
554.6444463476686
 23
831.1779189940305
 33
0.0
  0
SOLID
  5
22D61
330
22D5B
100
AcDbEntity
  8
Wymiar
 62
     0
100
AcDbTrace
 10
620.8444463476911
 20
830.7612523273639
 30
0.0
 11
620.8444463476911
 21
831.5945856606971
 31
0.0
 12
623.3444463476911
 22
831.1779189940305
 32
0.0
 13
623.3444463476911
 23
831.1779189940305
 33
0.0
  0
MTEXT
  5
22D62
330
22D5B
100
AcDbEntity
  8
Wymiar
 62
     0
100
AcDbMText
 10
588.9944463476799
 20
833.3053064428709
 30
0.0
 40
2.5
 41
0.0
 46
0.0
 71
     5
 72
     1
  1
68,7
 73
     1
 44
1.0
  0
POINT
  5
22D63
330
22D5B
100
AcDbEntity
  8
Defpoints
 62
     0
100
AcDbPoint
 10
554.6444463476686
 20
841.1779189940305
 30
0.0
  0
POINT
  5
22D64
330
22D5B
100
AcDbEntity
  8
Defpoints
 62
     0
100
AcDbPoint
 10
623.3444463476911
 20
841.1779189940305
 30
0.0
  0
POINT
  5
22D65
330
22D5B
100
AcDbEntity
  8
Defpoints
 62
     0
100
AcDbPoint
 10
623.3444463476911
 20
831.1779189940305
 30
0.0
  0
ENDBLK
  5
22D66
330
22D5B
100
AcDbEntity
  8
Wymiar
100
AcDbBlockEnd
  0
BLOCK
  5
22D69
330
22D68
100
AcDbEntity
  8
Wymiar
100
AcDbBlockBegin
  2
*D22
 70
     1
 10
0.0
 20
0.0
 30
0.0
  3
*D22
  1
Acad:XRef
  0
LINE
  5
22D6A
330
22D68
100
AcDbEntity
  8
Wymiar
 62
     0
370
    -2
100
AcDbLine
 10
554.0194463476686
 20
841.1779189940305
 30
0.0
 11
540.494446347689
 21
841.1779189940305
 31
0.0
  0
LINE
  5
22D6B
330
22D68
100
AcDbEntity
  8
Wymiar
 62
     0
370
    -2
100
AcDbLine
 10
554.0194463476686
 20
876.1779189940305
 30
0.0
 11
540.494446347689
 21
876.1779189940305
 31
0.0
  0
LINE
  5
22D6C
330
22D68
100
AcDbEntity
  8
Wymiar
 62
     0
370
    -2
100
AcDbLine
 10
541.744446347689
 20
843.6779189940305
 30
0.0
 11
541.744446347689
 21
873.6779189940305
 31
0.0
  0
SOLID
  5
22D6D
330
22D68
100
AcDbEntity
  8
Wymiar
 62
     0
100
AcDbTrace
 10
541.3277796810223
 20
843.6779189940305
 30
0.0
 11
542.1611130143556
 21
843.6779189940305
 31
0.0
 12
541.744446347689
 22
841.1779189940305
 32
0.0
 13
541.744446347689
 23
841.1779189940305
 33
0.0
  0
SOLID
  5
22D6E
330
22D68
100
AcDbEntity
  8
Wymiar
 62
     0
100
AcDbTrace
 10
542.1611130143556
 20
873.6779189940305
 30
0.0
 11
541.3277796810223
 21
873.6779189940305
 31
0.0
 12
541.744446347689
 22
876.1779189940305
 32
0.0
 13
541.744446347689
 23
876.1779189940305
 33
0.0
  0
MTEXT
  5
22D6F
330
22D68
100
AcDbEntity
  8
Wymiar
 62
     0
100
AcDbMText
 10
539.069764674201
 20
858.6779189940305
 30
0.0
 40
2.5
 41
0.0
 46
0.0
 71
     5
 72
     1
  1
\A1;{\H0.7x;\S1/2;} Hw
 11
0.0
 21
1.0
 31
0.0
 73
     1
 44
1.0
  0
POINT
  5
22D70
330
22D68
100
AcDbEntity
  8
Defpoints
 62
     0
100
AcDbPoint
 10
554.6444463476686
 20
841.1779189940305
 30
0.0
  0
POINT
  5
22D71
330
22D68
100
AcDbEntity
  8
Defpoints
 62
     0
100
AcDbPoint
 10
554.6444463476686
 20
876.1779189940305
 30
0.0
  0
POINT
  5
22D72
330
22D68
100
AcDbEntity
  8
Defpoints
 62
     0
100
AcDbPoint
 10
541.744446347689
 20
876.1779189940305
 30
0.0
  0
ENDBLK
  5
22D73
330
22D68
100
AcDbEntity
  8
Wymiar
100
AcDbBlockEnd
  0
BLOCK
  5
22D76
330
22D75
100
AcDbEntity
  8
Wymiar
100
AcDbBlockBegin
  2
*D23
 70
     1
 10
0.0
 20
0.0
 30
0.0
  3
*D23
  1
Acad:XRef
  0
LINE
  5
22D77
330
22D75
100
AcDbEntity
  8
Wymiar
 62
     0
370
    -2
100
AcDbLine
 10
554.0194463476686
 20
876.1779189940305
 30
0.0
 11
540.494446347689
 21
876.1779189940305
 31
0.0
  0
LINE
  5
22D78
330
22D75
100
AcDbEntity
  8
Wymiar
 62
     0
370
    -2
100
AcDbLine
 10
561.5194463476686
 20
911.1779189940305
 30
0.0
 11
540.494446347689
 21
911.1779189940305
 31
0.0
  0
LINE
  5
22D79
330
22D75
100
AcDbEntity
  8
Wymiar
 62
     0
370
    -2
100
AcDbLine
 10
541.744446347689
 20
878.6779189940305
 30
0.0
 11
541.744446347689
 21
908.6779189940305
 31
0.0
  0
SOLID
  5
22D7A
330
22D75
100
AcDbEntity
  8
Wymiar
 62
     0
100
AcDbTrace
 10
541.3277796810223
 20
878.6779189940305
 30
0.0
 11
542.1611130143556
 21
878.6779189940305
 31
0.0
 12
541.744446347689
 22
876.1779189940305
 32
0.0
 13
541.744446347689
 23
876.1779189940305
 33
0.0
  0
SOLID
  5
22D7B
330
22D75
100
AcDbEntity
  8
Wymiar
 62
     0
100
AcDbTrace
 10
542.1611130143556
 20
908.6779189940305
 30
0.0
 11
541.3277796810223
 21
908.6779189940305
 31
0.0
 12
541.744446347689
 22
911.1779189940305
 32
0.0
 13
541.744446347689
 23
911.1779189940305
 33
0.0
  0
MTEXT
  5
22D7C
330
22D75
100
AcDbEntity
  8
Wymiar
 62
     0
100
AcDbMText
 10
539.069764674201
 20
893.6779189940305
 30
0.0
 40
2.5
 41
0.0
 46
0.0
 71
     5
 72
     1
  1
\A1;{\H0.7x;\S1/2;} Hw
 11
0.0
 21
1.0
 31
0.0
 73
     1
 44
1.0
  0
POINT
  5
22D7D
330
22D75
100
AcDbEntity
  8
Defpoints
 62
     0
100
AcDbPoint
 10
554.6444463476686
 20
876.1779189940305
 30
0.0
  0
POINT
  5
22D7E
330
22D75
100
AcDbEntity
  8
Defpoints
 62
     0
100
AcDbPoint
 10
562.1444463476686
 20
911.1779189940305
 30
0.0
  0
POINT
  5
22D7F
330
22D75
100
AcDbEntity
  8
Defpoints
 62
     0
100
AcDbPoint
 10
541.744446347689
 20
911.1779189940305
 30
0.0
  0
ENDBLK
  5
22D80
330
22D75
100
AcDbEntity
  8
Wymiar
100
AcDbBlockEnd
  0
BLOCK
  5
22D84
330
22D83
100
AcDbEntity
  8
Wymiar
100
AcDbBlockBegin
  2
*D24
 70
     1
 10
0.0
 20
0.0
 30
0.0
  3
*D24
  1
Acad:XRef
  0
LINE
  5
22D85
330
22D83
100
AcDbEntity
  8
Wymiar
 62
     0
370
    -2
100
AcDbLine
 10
623.9694463476911
 20
841.1779189940305
 30
0.0
 11
634.5944463476911
 21
841.1779189940305
 31
0.0
  0
LINE
  5
22D86
330
22D83
100
AcDbEntity
  8
Wymiar
 62
     0
370
    -2
100
AcDbLine
 10
633.9694463476911
 20
911.1779189940305
 30
0.0
 11
634.5944463476911
 21
911.1779189940305
 31
0.0
  0
LINE
  5
22D87
330
22D83
100
AcDbEntity
  8
Wymiar
 62
     0
370
    -2
100
AcDbLine
 10
633.3444463476911
 20
843.6779189940305
 30
0.0
 11
633.3444463476911
 21
908.6779189940305
 31
0.0
  0
SOLID
  5
22D88
330
22D83
100
AcDbEntity
  8
Wymiar
 62
     0
100
AcDbTrace
 10
632.9277796810245
 20
843.6779189940305
 30
0.0
 11
633.7611130143578
 21
843.6779189940305
 31
0.0
 12
633.3444463476911
 22
841.1779189940305
 32
0.0
 13
633.3444463476911
 23
841.1779189940305
 33
0.0
  0
SOLID
  5
22D89
330
22D83
100
AcDbEntity
  8
Wymiar
 62
     0
100
AcDbTrace
 10
633.7611130143578
 20
908.6779189940305
 30
0.0
 11
632.9277796810245
 21
908.6779189940305
 31
0.0
 12
633.3444463476911
 22
911.1779189940305
 32
0.0
 13
633.3444463476911
 23
911.1779189940305
 33
0.0
  0
MTEXT
  5
22D8A
330
22D83
100
AcDbEntity
  8
Wymiar
 62
     0
100
AcDbMText
 10
631.4430138783869
 20
876.1779189940305
 30
0.0
 40
2.5
 41
0.0
 46
0.0
 71
     5
 72
     1
  1
H widoczne = 70
 11
0.0
 21
1.0
 31
0.0
 73
     1
 44
1.0
  0
POINT
  5
22D8B
330
22D83
100
AcDbEntity
  8
Defpoints
 62
     0
100
AcDbPoint
 10
623.3444463476911
 20
841.1779189940305
 30
0.0
  0
POINT
  5
22D8C
330
22D83
100
AcDbEntity
  8
Defpoints
 62
     0
100
AcDbPoint
 10
633.3444463476911
 20
911.1779189940305
 30
0.0
  0
POINT
  5
22D8D
330
22D83
100
AcDbEntity
  8
Defpoints
 62
     0
100
AcDbPoint
 10
633.3444463476911
 20
911.1779189940305
 30
0.0
  0
ENDBLK
  5
22D8E
330
22D83
100
AcDbEntity
  8
Wymiar
100
AcDbBlockEnd
  0
BLOCK
  5
22D9B
330
22D91
100
AcDbEntity
  8
XPS
100
AcDbBlockBegin
  2
*D25
 70
     1
 10
0.0
 20
0.0
 30
0.0
  3
*D25
  1
Acad:XRef
  0
LINE
  5
22D92
330
22D91
100
AcDbEntity
  8
Wymiar
 62
     0
370
    -2
100
AcDbLine
 10
17.62436334695553
 20
3.75
 30
0.0
 11
17.62436334695553
 21
-1.25
 31
0.0
  0
LINE
  5
22D93
330
22D91
100
AcDbEntity
  8
Wymiar
 62
     0
370
    -2
100
AcDbLine
 10
86.32436334697809
 20
3.75
 30
0.0
 11
86.32436334697809
 21
-1.25
 31
0.0
  0
LINE
  5
22D94
330
22D91
100
AcDbEntity
  8
Wymiar
 62
     0
370
    -2
100
AcDbLine
 10
22.62436334695553
 20
1.25
 30
0.0
 11
81.32436334697809
 21
1.25
 31
0.0
  0
SOLID
  5
22D95
330
22D91
100
AcDbEntity
  8
Wymiar
 62
     0
100
AcDbTrace
 10
22.62436334695553
 20
2.083333333333333
 30
0.0
 11
22.62436334695553
 21
0.4166666666666666
 31
0.0
 12
17.62436334695553
 22
1.25
 32
0.0
 13
17.62436334695553
 23
1.25
 33
0.0
  0
SOLID
  5
22D96
330
22D91
100
AcDbEntity
  8
Wymiar
 62
     0
100
AcDbTrace
 10
81.32436334697809
 20
0.4166666666666666
 30
0.0
 11
81.32436334697809
 21
2.083333333333333
 31
0.0
 12
86.32436334697809
 22
1.25
 32
0.0
 13
86.32436334697809
 23
1.25
 33
0.0
  0
MTEXT
  5
22D97
330
22D91
100
AcDbEntity
  8
Wymiar
 62
     0
100
AcDbMText
 10
51.97436334696681
 20
5.254774897680764
 30
0.0
 40
5.0
 41
0.0
 46
0.0
 71
     5
 72
     1
  1
68,7
 73
     1
 44
1.0
  0
POINT
  5
22D98
330
22D91
100
AcDbEntity
  8
Defpoints
 62
     0
100
AcDbPoint
 10
17.62436334695553
 20
11.25
 30
0.0
  0
POINT
  5
22D99
330
22D91
100
AcDbEntity
  8
Defpoints
 62
     0
100
AcDbPoint
 10
86.32436334697809
 20
11.25
 30
0.0
  0
POINT
  5
22D9A
330
22D91
100
AcDbEntity
  8
Defpoints
 62
     0
100
AcDbPoint
 10
86.32436334697809
 20
1.25
 30
0.0
  0
ENDBLK
  5
22D9C
330
22D91
100
AcDbEntity
  8
XPS
100
AcDbBlockEnd
  0
BLOCK
  5
22DA7
330
22D9D
100
AcDbEntity
  8
XPS
100
AcDbBlockBegin
  2
*D26
 70
     1
 10
0.0
 20
0.0
 30
0.0
  3
*D26
  1
Acad:XRef
  0
LINE
  5
22D9E
330
22D9D
100
AcDbEntity
  8
Wymiar
 62
     0
370
    -2
100
AcDbLine
 10
7.224363346975904
 20
11.25
 30
0.0
 11
2.224363346975904
 21
11.25
 31
0.0
  0
LINE
  5
22D9F
330
22D9D
100
AcDbEntity
  8
Wymiar
 62
     0
370
    -2
100
AcDbLine
 10
7.224363346975906
 20
46.25
 30
0.0
 11
2.224363346975906
 21
46.25
 31
0.0
  0
LINE
  5
22DA0
330
22D9D
100
AcDbEntity
  8
Wymiar
 62
     0
370
    -2
100
AcDbLine
 10
4.724363346975904
 20
16.25
 30
0.0
 11
4.724363346975906
 21
41.25
 31
0.0
  0
SOLID
  5
22DA1
330
22D9D
100
AcDbEntity
  8
Wymiar
 62
     0
100
AcDbTrace
 10
3.891030013642571
 20
16.25
 30
0.0
 11
5.557696680309237
 21
16.25
 31
0.0
 12
4.724363346975904
 22
11.25
 32
0.0
 13
4.724363346975904
 23
11.25
 33
0.0
  0
SOLID
  5
22DA2
330
22D9D
100
AcDbEntity
  8
Wymiar
 62
     0
100
AcDbTrace
 10
5.557696680309239
 20
41.25
 30
0.0
 11
3.891030013642573
 21
41.25
 31
0.0
 12
4.724363346975906
 22
46.25
 32
0.0
 13
4.724363346975906
 23
46.25
 33
0.0
  0
MTEXT
  5
22DA3
330
22D9D
100
AcDbEntity
  8
Wymiar
 62
     0
100
AcDbMText
 10
-0.3749999999999938
 20
28.75
 30
0.0
 40
5.0
 41
0.0
 46
0.0
 71
     5
 72
     1
  1
\A1;{\H0.7x;\S1/2;} Hw
 11
5.075305255429287E-17
 21
1.0
 31
0.0
 73
     1
 44
1.0
  0
POINT
  5
22DA4
330
22D9D
100
AcDbEntity
  8
Defpoints
 62
     0
100
AcDbPoint
 10
17.62436334695553
 20
11.25
 30
0.0
  0
POINT
  5
22DA5
330
22D9D
100
AcDbEntity
  8
Defpoints
 62
     0
100
AcDbPoint
 10
17.62436334695553
 20
46.25
 30
0.0
  0
POINT
  5
22DA6
330
22D9D
100
AcDbEntity
  8
Defpoints
 62
     0
100
AcDbPoint
 10
4.724363346975906
 20
46.25
 30
0.0
  0
ENDBLK
  5
22DA8
330
22D9D
100
AcDbEntity
  8
XPS
100
AcDbBlockEnd
  0
BLOCK
  5
22DB3
330
22DA9
100
AcDbEntity
  8
XPS
100
AcDbBlockBegin
  2
*D27
 70
     1
 10
0.0
 20
0.0
 30
0.0
  3
*D27
  1
Acad:XRef
  0
LINE
  5
22DAA
330
22DA9
100
AcDbEntity
  8
Wymiar
 62
     0
370
    -2
100
AcDbLine
 10
7.224363346975904
 20
46.25
 30
0.0
 11
2.224363346975904
 21
46.25
 31
0.0
  0
LINE
  5
22DAB
330
22DA9
100
AcDbEntity
  8
Wymiar
 62
     0
370
    -2
100
AcDbLine
 10
7.224363346975906
 20
81.25
 30
0.0
 11
2.224363346975906
 21
81.25
 31
0.0
  0
LINE
  5
22DAC
330
22DA9
100
AcDbEntity
  8
Wymiar
 62
     0
370
    -2
100
AcDbLine
 10
4.724363346975904
 20
51.25
 30
0.0
 11
4.724363346975906
 21
76.25
 31
0.0
  0
SOLID
  5
22DAD
330
22DA9
100
AcDbEntity
  8
Wymiar
 62
     0
100
AcDbTrace
 10
3.891030013642571
 20
51.25
 30
0.0
 11
5.557696680309237
 21
51.25
 31
0.0
 12
4.724363346975904
 22
46.25
 32
0.0
 13
4.724363346975904
 23
46.25
 33
0.0
  0
SOLID
  5
22DAE
330
22DA9
100
AcDbEntity
  8
Wymiar
 62
     0
100
AcDbTrace
 10
5.557696680309239
 20
76.25
 30
0.0
 11
3.891030013642573
 21
76.25
 31
0.0
 12
4.724363346975906
 22
81.25
 32
0.0
 13
4.724363346975906
 23
81.25
 33
0.0
  0
MTEXT
  5
22DAF
330
22DA9
100
AcDbEntity
  8
Wymiar
 62
     0
100
AcDbMText
 10
-0.3749999999999902
 20
63.75
 30
0.0
 40
5.0
 41
0.0
 46
0.0
 71
     5
 72
     1
  1
\A1;{\H0.7x;\S1/2;} Hw
 11
5.075305255429287E-17
 21
1.0
 31
0.0
 73
     1
 44
1.0
  0
POINT
  5
22DB0
330
22DA9
100
AcDbEntity
  8
Defpoints
 62
     0
100
AcDbPoint
 10
17.62436334695553
 20
46.25
 30
0.0
  0
POINT
  5
22DB1
330
22DA9
100
AcDbEntity
  8
Defpoints
 62
     0
100
AcDbPoint
 10
25.12436334695553
 20
81.25
 30
0.0
  0
POINT
  5
22DB2
330
22DA9
100
AcDbEntity
  8
Defpoints
 62
     0
100
AcDbPoint
 10
4.724363346975906
 20
81.25
 30
0.0
  0
ENDBLK
  5
22DB4
330
22DA9
100
AcDbEntity
  8
XPS
100
AcDbBlockEnd
  0
BLOCK
  5
22DBF
330
22DB5
100
AcDbEntity
  8
XPS
100
AcDbBlockBegin
  2
*D28
 70
     1
 10
0.0
 20
0.0
 30
0.0
  3
*D28
  1
Acad:XRef
  0
LINE
  5
22DB6
330
22DB5
100
AcDbEntity
  8
Wymiar
 62
     0
370
    -2
100
AcDbLine
 10
93.82436334697809
 20
11.25
 30
0.0
 11
98.82436334697809
 21
11.25
 31
0.0
  0
LINE
  5
22DB7
330
22DB5
100
AcDbEntity
  8
Wymiar
 62
     0
370
    -2
100
AcDbLine
 10
98.32436334697809
 20
81.25
 30
0.0
 11
98.82436334697809
 21
81.25
 31
0.0
  0
LINE
  5
22DB8
330
22DB5
100
AcDbEntity
  8
Wymiar
 62
     0
370
    -2
100
AcDbLine
 10
96.32436334697809
 20
16.25
 30
0.0
 11
96.32436334697809
 21
76.25
 31
0.0
  0
SOLID
  5
22DB9
330
22DB5
100
AcDbEntity
  8
Wymiar
 62
     0
100
AcDbTrace
 10
95.49103001364476
 20
16.25
 30
0.0
 11
97.15769668031142
 21
16.25
 31
0.0
 12
96.32436334697809
 22
11.25
 32
0.0
 13
96.32436334697809
 23
11.25
 33
0.0
  0
SOLID
  5
22DBA
330
22DB5
100
AcDbEntity
  8
Wymiar
 62
     0
100
AcDbTrace
 10
97.15769668031142
 20
76.25
 30
0.0
 11
95.49103001364476
 21
76.25
 31
0.0
 12
96.32436334697809
 22
81.25
 32
0.0
 13
96.32436334697809
 23
81.25
 33
0.0
  0
MTEXT
  5
22DBB
330
22DB5
100
AcDbEntity
  8
Wymiar
 62
     0
100
AcDbMText
 10
92.77149840836964
 20
46.25
 30
0.0
 40
5.0
 41
0.0
 46
0.0
 71
     5
 72
     1
  1
H widoczne = 70
 11
0.0
 21
1.0
 31
0.0
 73
     1
 44
1.0
  0
POINT
  5
22DBC
330
22DB5
100
AcDbEntity
  8
Defpoints
 62
     0
100
AcDbPoint
 10
86.32436334697809
 20
11.25
 30
0.0
  0
POINT
  5
22DBD
330
22DB5
100
AcDbEntity
  8
Defpoints
 62
     0
100
AcDbPoint
 10
96.32436334697809
 20
81.25
 30
0.0
  0
POINT
  5
22DBE
330
22DB5
100
AcDbEntity
  8
Defpoints
 62
     0
100
AcDbPoint
 10
96.32436334697809
 20
81.25
 30
0.0
  0
ENDBLK
  5
22DC0
330
22DB5
100
AcDbEntity
  8
XPS
100
AcDbBlockEnd
  0
BLOCK
  5
22DFE
330
22DF4
100
AcDbEntity
  8
XPS
100
AcDbBlockBegin
  2
*D29
 70
     1
 10
0.0
 20
0.0
 30
0.0
  3
*D29
  1
Acad:XRef
  0
LINE
  5
22DF5
330
22DF4
100
AcDbEntity
  8
Wymiar
 62
     0
370
    -2
100
AcDbLine
 10
173.1012106375958
 20
82.32947024786932
 30
0.0
 11
173.1012106375958
 21
77.32947024786932
 31
0.0
  0
LINE
  5
22DF6
330
22DF4
100
AcDbEntity
  8
Wymiar
 62
     0
370
    -2
100
AcDbLine
 10
241.8012106376183
 20
82.32947024786932
 30
0.0
 11
241.8012106376183
 21
77.32947024786932
 31
0.0
  0
LINE
  5
22DF7
330
22DF4
100
AcDbEntity
  8
Wymiar
 62
     0
370
    -2
100
AcDbLine
 10
178.1012106375958
 20
79.82947024786932
 30
0.0
 11
236.8012106376183
 21
79.82947024786932
 31
0.0
  0
SOLID
  5
22DF8
330
22DF4
100
AcDbEntity
  8
Wymiar
 62
     0
100
AcDbTrace
 10
178.1012106375958
 20
80.66280358120265
 30
0.0
 11
178.1012106375958
 21
78.996136914536
 31
0.0
 12
173.1012106375958
 22
79.82947024786932
 32
0.0
 13
173.1012106375958
 23
79.82947024786932
 33
0.0
  0
SOLID
  5
22DF9
330
22DF4
100
AcDbEntity
  8
Wymiar
 62
     0
100
AcDbTrace
 10
236.8012106376183
 20
78.996136914536
 30
0.0
 11
236.8012106376183
 21
80.66280358120265
 31
0.0
 12
241.8012106376183
 22
79.82947024786932
 32
0.0
 13
241.8012106376183
 23
79.82947024786932
 33
0.0
  0
MTEXT
  5
22DFA
330
22DF4
100
AcDbEntity
  8
Wymiar
 62
     0
100
AcDbMText
 10
207.4512106376071
 20
83.83424514555008
 30
0.0
 40
5.0
 41
0.0
 46
0.0
 71
     5
 72
     1
  1
68,7
 73
     1
 44
1.0
  0
POINT
  5
22DFB
330
22DF4
100
AcDbEntity
  8
Defpoints
 62
     0
100
AcDbPoint
 10
173.1012106375958
 20
89.82947024786932
 30
0.0
  0
POINT
  5
22DFC
330
22DF4
100
AcDbEntity
  8
Defpoints
 62
     0
100
AcDbPoint
 10
241.8012106376183
 20
89.82947024786932
 30
0.0
  0
POINT
  5
22DFD
330
22DF4
100
AcDbEntity
  8
Defpoints
 62
     0
100
AcDbPoint
 10
241.8012106376183
 20
79.82947024786932
 30
0.0
  0
ENDBLK
  5
22DFF
330
22DF4
100
AcDbEntity
  8
XPS
100
AcDbBlockEnd
  0
BLOCK
  5
22E0A
330
22E00
100
AcDbEntity
  8
XPS
100
AcDbBlockBegin
  2
*D30
 70
     1
 10
0.0
 20
0.0
 30
0.0
  3
*D30
  1
Acad:XRef
  0
LINE
  5
22E01
330
22E00
100
AcDbEntity
  8
Wymiar
 62
     0
370
    -2
100
AcDbLine
 10
162.7012106376162
 20
89.82947024786932
 30
0.0
 11
157.7012106376162
 21
89.82947024786932
 31
0.0
  0
LINE
  5
22E02
330
22E00
100
AcDbEntity
  8
Wymiar
 62
     0
370
    -2
100
AcDbLine
 10
162.7012106376162
 20
124.8294702478693
 30
0.0
 11
157.7012106376162
 21
124.8294702478693
 31
0.0
  0
LINE
  5
22E03
330
22E00
100
AcDbEntity
  8
Wymiar
 62
     0
370
    -2
100
AcDbLine
 10
160.2012106376162
 20
94.82947024786932
 30
0.0
 11
160.2012106376162
 21
119.8294702478693
 31
0.0
  0
SOLID
  5
22E04
330
22E00
100
AcDbEntity
  8
Wymiar
 62
     0
100
AcDbTrace
 10
159.3678773042828
 20
94.82947024786932
 30
0.0
 11
161.0345439709495
 21
94.82947024786932
 31
0.0
 12
160.2012106376162
 22
89.82947024786932
 32
0.0
 13
160.2012106376162
 23
89.82947024786932
 33
0.0
  0
SOLID
  5
22E05
330
22E00
100
AcDbEntity
  8
Wymiar
 62
     0
100
AcDbTrace
 10
161.0345439709495
 20
119.8294702478693
 30
0.0
 11
159.3678773042828
 21
119.8294702478693
 31
0.0
 12
160.2012106376162
 22
124.8294702478693
 32
0.0
 13
160.2012106376162
 23
124.8294702478693
 33
0.0
  0
MTEXT
  5
22E06
330
22E00
100
AcDbEntity
  8
Wymiar
 62
     0
100
AcDbMText
 10
155.1018472906403
 20
107.3294702478693
 30
0.0
 40
5.0
 41
0.0
 46
0.0
 71
     5
 72
     1
  1
\A1;{\H0.7x;\S1/2;} Hw
 11
0.0
 21
1.0
 31
0.0
 73
     1
 44
1.0
  0
POINT
  5
22E07
330
22E00
100
AcDbEntity
  8
Defpoints
 62
     0
100
AcDbPoint
 10
173.1012106375958
 20
89.82947024786932
 30
0.0
  0
POINT
  5
22E08
330
22E00
100
AcDbEntity
  8
Defpoints
 62
     0
100
AcDbPoint
 10
173.1012106375958
 20
124.8294702478693
 30
0.0
  0
POINT
  5
22E09
330
22E00
100
AcDbEntity
  8
Defpoints
 62
     0
100
AcDbPoint
 10
160.2012106376162
 20
124.8294702478693
 30
0.0
  0
ENDBLK
  5
22E0B
330
22E00
100
AcDbEntity
  8
XPS
100
AcDbBlockEnd
  0
BLOCK
  5
22E16
330
22E0C
100
AcDbEntity
  8
XPS
100
AcDbBlockBegin
  2
*D31
 70
     1
 10
0.0
 20
0.0
 30
0.0
  3
*D31
  1
Acad:XRef
  0
LINE
  5
22E0D
330
22E0C
100
AcDbEntity
  8
Wymiar
 62
     0
370
    -2
100
AcDbLine
 10
162.7012106376162
 20
124.8294702478693
 30
0.0
 11
157.7012106376162
 21
124.8294702478693
 31
0.0
  0
LINE
  5
22E0E
330
22E0C
100
AcDbEntity
  8
Wymiar
 62
     0
370
    -2
100
AcDbLine
 10
162.7012106376162
 20
159.8294702478693
 30
0.0
 11
157.7012106376162
 21
159.8294702478693
 31
0.0
  0
LINE
  5
22E0F
330
22E0C
100
AcDbEntity
  8
Wymiar
 62
     0
370
    -2
100
AcDbLine
 10
160.2012106376162
 20
129.8294702478693
 30
0.0
 11
160.2012106376162
 21
154.8294702478693
 31
0.0
  0
SOLID
  5
22E10
330
22E0C
100
AcDbEntity
  8
Wymiar
 62
     0
100
AcDbTrace
 10
159.3678773042828
 20
129.8294702478693
 30
0.0
 11
161.0345439709495
 21
129.8294702478693
 31
0.0
 12
160.2012106376162
 22
124.8294702478693
 32
0.0
 13
160.2012106376162
 23
124.8294702478693
 33
0.0
  0
SOLID
  5
22E11
330
22E0C
100
AcDbEntity
  8
Wymiar
 62
     0
100
AcDbTrace
 10
161.0345439709495
 20
154.8294702478693
 30
0.0
 11
159.3678773042828
 21
154.8294702478693
 31
0.0
 12
160.2012106376162
 22
159.8294702478693
 32
0.0
 13
160.2012106376162
 23
159.8294702478693
 33
0.0
  0
MTEXT
  5
22E12
330
22E0C
100
AcDbEntity
  8
Wymiar
 62
     0
100
AcDbMText
 10
155.1018472906403
 20
142.3294702478693
 30
0.0
 40
5.0
 41
0.0
 46
0.0
 71
     5
 72
     1
  1
\A1;{\H0.7x;\S1/2;} Hw
 11
0.0
 21
1.0
 31
0.0
 73
     1
 44
1.0
  0
POINT
  5
22E13
330
22E0C
100
AcDbEntity
  8
Defpoints
 62
     0
100
AcDbPoint
 10
173.1012106375958
 20
124.8294702478693
 30
0.0
  0
POINT
  5
22E14
330
22E0C
100
AcDbEntity
  8
Defpoints
 62
     0
100
AcDbPoint
 10
180.6012106375958
 20
159.8294702478693
 30
0.0
  0
POINT
  5
22E15
330
22E0C
100
AcDbEntity
  8
Defpoints
 62
     0
100
AcDbPoint
 10
160.2012106376162
 20
159.8294702478693
 30
0.0
  0
ENDBLK
  5
22E17
330
22E0C
100
AcDbEntity
  8
XPS
100
AcDbBlockEnd
  0
BLOCK
  5
22E22
330
22E18
100
AcDbEntity
  8
XPS
100
AcDbBlockBegin
  2
*D32
 70
     1
 10
0.0
 20
0.0
 30
0.0
  3
*D32
  1
Acad:XRef
  0
LINE
  5
22E19
330
22E18
100
AcDbEntity
  8
Wymiar
 62
     0
370
    -2
100
AcDbLine
 10
249.3012106376183
 20
89.82947024786932
 30
0.0
 11
254.3012106376183
 21
89.82947024786932
 31
0.0
  0
LINE
  5
22E1A
330
22E18
100
AcDbEntity
  8
Wymiar
 62
     0
370
    -2
100
AcDbLine
 10
253.8012106376183
 20
159.8294702478693
 30
0.0
 11
254.3012106376183
 21
159.8294702478693
 31
0.0
  0
LINE
  5
22E1B
330
22E18
100
AcDbEntity
  8
Wymiar
 62
     0
370
    -2
100
AcDbLine
 10
251.8012106376183
 20
94.82947024786932
 30
0.0
 11
251.8012106376183
 21
154.8294702478693
 31
0.0
  0
SOLID
  5
22E1C
330
22E18
100
AcDbEntity
  8
Wymiar
 62
     0
100
AcDbTrace
 10
250.967877304285
 20
94.82947024786932
 30
0.0
 11
252.6345439709517
 21
94.82947024786932
 31
0.0
 12
251.8012106376183
 22
89.82947024786932
 32
0.0
 13
251.8012106376183
 23
89.82947024786932
 33
0.0
  0
SOLID
  5
22E1D
330
22E18
100
AcDbEntity
  8
Wymiar
 62
     0
100
AcDbTrace
 10
252.6345439709517
 20
154.8294702478693
 30
0.0
 11
250.967877304285
 21
154.8294702478693
 31
0.0
 12
251.8012106376183
 22
159.8294702478693
 32
0.0
 13
251.8012106376183
 23
159.8294702478693
 33
0.0
  0
MTEXT
  5
22E1E
330
22E18
100
AcDbEntity
  8
Wymiar
 62
     0
100
AcDbMText
 10
248.2483456990099
 20
124.8294702478693
 30
0.0
 40
5.0
 41
0.0
 46
0.0
 71
     5
 72
     1
  1
H widoczne = 70
 11
0.0
 21
1.0
 31
0.0
 73
     1
 44
1.0
  0
POINT
  5
22E1F
330
22E18
100
AcDbEntity
  8
Defpoints
 62
     0
100
AcDbPoint
 10
241.8012106376183
 20
89.82947024786932
 30
0.0
  0
POINT
  5
22E20
330
22E18
100
AcDbEntity
  8
Defpoints
 62
     0
100
AcDbPoint
 10
251.8012106376183
 20
159.8294702478693
 30
0.0
  0
POINT
  5
22E21
330
22E18
100
AcDbEntity
  8
Defpoints
 62
     0
100
AcDbPoint
 10
251.8012106376183
 20
159.8294702478693
 30
0.0
  0
ENDBLK
  5
22E23
330
22E18
100
AcDbEntity
  8
XPS
100
AcDbBlockEnd
  0
ENDSEC
  0
SECTION
  2
ENTITIES
  0
MTEXT
  5
22A88
330
1F
100
AcDbEntity
  8
Opis
 62
     0
100
AcDbMText
 10
391.0
 20
17.0
 30
0.0
 40
2.5
 41
17.99999999999997
 46
0.0
 71
     1
 72
     5
  1
\pxqc;{\fArial|b1|i0|c238|p34;A3}
 73
     1
 44
1.0
  0
MTEXT
  5
22A89
330
1F
100
AcDbEntity
  8
Opis
 62
     0
100
AcDbMText
 10
391.0
 20
3.5
 30
0.0
 40
2.5
 41
17.99999999999997
 46
0.0
 71
     1
 72
     5
  1
\pxqc;{\fArial|b1|i0|c238|p34;01/03/2023}
 73
     1
 44
1.0
  0
MTEXT
  5
22A8A
330
1F
100
AcDbEntity
  8
Opis
 62
     0
100
AcDbMText
 10
339.5
 20
19.25
 30
0.0
 40
2.5
 41
50.5
 46
0.0
 71
     1
 72
     5
  1
\pxqc;{\fArial|b1|i0|c238|p34;PO2KT}
 73
     1
 44
1.0
  0
MTEXT
  5
22A8B
330
1F
100
AcDbEntity
  8
Opis
 62
     0
100
AcDbMText
 10
391.0
 20
8.0
 30
0.0
 40
2.5
 41
17.99999999999997
 46
0.0
 71
     1
 72
     5
  1
\pxqc;{\fArial|b1|i0|c238|p34;1:1}
 73
     1
 44
1.0
  0
LINE
  5
22A8C
330
1F
100
AcDbEntity
  8
Tabela
 62
     0
100
AcDbLine
 10
390.0
 20
18.0
 30
0.0
 11
410.0
 21
18.0
 31
0.0
  0
LINE
  5
22A8D
330
1F
100
AcDbEntity
  8
Tabela
 62
     0
100
AcDbLine
 10
390.0
 20
13.5
 30
0.0
 11
410.0
 21
13.5
 31
0.0
  0
LINE
  5
22A8E
330
1F
100
AcDbEntity
  8
Tabela
 62
     0
100
AcDbLine
 10
390.0
 20
9.0
 30
0.0
 11
410.0
 21
9.0
 31
0.0
  0
LINE
  5
22A8F
330
1F
100
AcDbEntity
  8
Tabela
 62
     0
100
AcDbLine
 10
390.0
 20
4.5
 30
0.0
 11
410.0
 21
4.5
 31
0.0
  0
LINE
  5
22A90
330
1F
100
AcDbEntity
  8
Tabela
 62
     0
100
AcDbLine
 10
322.9999999999998
 20
22.5
 30
0.0
 11
322.9999999999998
 21
0.0
 31
0.0
  0
LINE
  5
22A91
330
1F
100
AcDbEntity
  8
Tabela
 62
     0
100
AcDbLine
 10
339.5
 20
22.5
 30
0.0
 11
339.5
 21
13.5
 31
0.0
  0
LINE
  5
22A92
330
1F
100
AcDbEntity
  8
Tabela
 62
     0
100
AcDbLine
 10
390.0
 20
22.5
 30
0.0
 11
390.0
 21
0.0
 31
0.0
  0
MTEXT
  5
22A93
330
1F
100
AcDbEntity
  8
Opis
 62
     0
100
AcDbMText
 10
323.9999999999998
 20
8.0
 30
0.0
 40
2.5
 41
65.06113314006981
 46
0.0
 71
     1
 72
     5
  1
\pxqc;Staniszewo 114D, 83-328 Sianowo
 73
     1
 44
1.0
  0
MTEXT
  5
22A94
330
1F
100
AcDbEntity
  8
Opis
 62
     0
100
AcDbMText
 10
323.9999999999998
 20
12.5
 30
0.0
 40
2.5
 41
65.0
 46
0.0
 71
     1
 72
     5
  1
\pxqc;KLINAR Sp. z o.o.
 73
     1
 44
1.0
  0
MTEXT
  5
22A95
330
1F
100
AcDbEntity
  8
Opis
 62
     0
100
AcDbMText
 10
323.9999999999998
 20
19.25
 30
0.0
 40
2.5
 41
14.5
 46
0.0
 71
     1
 72
     5
  1
\pxqc;Rysunek:
 73
     1
 44
1.0
  0
MTEXT
  5
22A96
330
1F
100
AcDbEntity
  8
Opis
 62
     0
100
AcDbMText
 10
323.9999999999998
 20
3.5
 30
0.0
 40
2.5
 41
65.0
 46
0.0
 71
     1
 72
     5
  1
\pxqc;tel.: 882-158-581 www.klinar.pl
 73
     1
 44
1.0
  0
MTEXT
  5
22A97
330
1F
100
AcDbEntity
  8
Opis
 62
     0
100
AcDbMText
 10
391.0
 20
21.5
 30
0.0
 40
2.5
 41
17.99999999999997
 46
0.0
 71
     1
 72
     5
  1
\pxqc;{\fArial|b1|i0|c238|p34;Format}
 73
     1
 44
1.0
  0
MTEXT
  5
22A98
330
1F
100
AcDbEntity
  8
Opis
 62
     0
100
AcDbMText
 10
391.0
 20
12.5
 30
0.0
 40
2.5
 41
17.99999999999997
 46
0.0
 71
     1
 72
     5
  1
\pxqc;{\fArial|b1|i0|c238|p34;Skala:}
 73
     1
 44
1.0
  0
LINE
  5
22A99
330
1F
100
AcDbEntity
  8
Tabela
 62
     0
100
AcDbLine
 10
322.9999999999998
 20
13.5
 30
0.0
 11
410.0
 21
13.5
 31
0.0
  0
LWPOLYLINE
  5
22A9A
330
1F
100
AcDbEntity
  8
Logo Klinar
 62
     0
100
AcDbPolyline
 90
        2
 70
     0
 43
0.0
 10
304.6323244033701
 20
1.211751388239918
 10
310.3923244033701
 20
3.89975138824002
  0
HATCH
  5
22A9B
102
{ACAD_XDICTIONARY
360
22A9C
102
}
330
1F
100
AcDbEntity
  8
Logo Klinar
 62
     0
100
AcDbHatch
 10
0.0
 20
0.0
 30
0.0
210
0.0
220
0.0
230
1.0
  2
SOLID
 70
     1
 71
     1
 91
        4
 92
        1
 93
       13
 72
     1
 10
317.3699846520065
 20
14.87063113161594
 11
317.0063454888971
 21
14.87063113161594
 72
     1
 10
317.0063454888971
 20
14.87063113161594
 11
320.8599489858516
 21
20.95462477834508
 72
     1
 10
320.8599489858516
 20
20.95462477834508
 11
315.6161789065134
 21
18.50753207465368
 72
     1
 10
315.6161789065134
 20
18.50753207465368
 11
313.3125647007846
 21
14.87063113161594
 72
     1
 10
313.3125647007846
 20
14.87063113161594
 11
312.9489255376752
 21
14.87063113161594
 72
     1
 10
312.9489255376752
 20
14.87063113161594
 11
315.2313684887106
 21
18.47410731283026
 72
     1
 10
315.2313684887106
 20
18.47410731283026
 11
295.6696764642395
 21
18.47410731283026
 72
     1
 10
295.6696764642395
 20
18.47410731283026
 11
297.6558145924562
 21
14.72512301034476
 72
     1
 10
297.6558145924562
 20
14.72512301034476
 11
297.4353167991724
 21
14.48511805934504
 72
     1
 10
297.4353167991724
 20
14.48511805934504
 11
295.2031119034159
 21
18.69857179412475
 72
     1
 10
295.2031119034159
 20
18.69857179412475
 11
301.1404023006421
 21
21.4693073128301
 72
     1
 10
301.1404023006421
 20
21.4693073128301
 11
321.549588228823
 21
21.4693073128301
 72
     1
 10
321.549588228823
 20
21.4693073128301
 11
317.3699846520065
 21
14.87063113161594
 97
        1
330
22AAA
 92
        1
 93
       17
 72
     1
 10
314.3763140512813
 20
10.1442826814955
 11
314.2390161909675
 21
10.50162589267165
 72
     1
 10
314.2390161909675
 20
10.50162589267165
 11
310.2216686481486
 21
4.159116356719551
 72
     1
 10
310.2216686481486
 20
4.159116356719551
 11
304.9778985688104
 21
1.712023653028609
 72
     1
 10
304.9778985688104
 20
1.712023653028609
 11
311.4178877405971
 21
11.87935229416053
 72
     1
 10
311.4178877405971
 20
11.87935229416053
 11
311.9986962969567
 21
13.37042783669085
 72
     1
 10
311.9986962969567
 20
13.37042783669085
 11
310.1139770110121
 21
10.39486998009852
 72
     1
 10
310.1139770110121
 20
10.39486998009852
 11
310.1139770110121
 21
10.02666863430295
 72
     1
 10
310.1139770110121
 20
10.02666863430295
 11
309.8807581623198
 21
10.02666863430295
 72
     1
 10
309.8807581623198
 20
10.02666863430295
 11
304.5792122768146
 21
1.656691933081222
 72
     1
 10
304.5792122768146
 20
1.65669193308122
 11
300.1449632863453
 21
10.02666863430295
 72
     1
 10
300.1449632863453
 20
10.02666863430295
 11
299.8954370367726
 21
10.02666863430295
 72
     1
 10
299.8954370367726
 20
10.02666863430295
 11
299.8954370367726
 21
10.49766809774246
 72
     1
 10
299.8954370367726
 20
10.49766809774246
 11
298.1904405093853
 21
13.71597659610779
 72
     1
 10
298.1904405093853
 20
13.71597659610779
 11
297.965880073489
 21
13.48364018697112
 72
     1
 10
297.965880073489
 20
13.48364018697112
 11
304.4999999999998
 21
1.150000000000547
 72
     1
 10
304.4999999999998
 20
1.150000000000546
 11
310.4330697436417
 21
3.918765880366664
 72
     1
 10
310.4330697436417
 20
3.918765880366664
 11
314.3763140512813
 21
10.1442826814955
 97
        1
330
22AA5
 92
        1
 93
        4
 72
     1
 10
315.1221037427865
 20
11.32172082439229
 11
314.9812490276879
 21
11.67344854297016
 72
     1
 10
314.9812490276879
 20
11.67344854297016
 11
316.2021157262197
 21
13.60092895013713
 72
     1
 10
316.2021157262197
 20
13.60092895013713
 11
316.20211572622
 21
13.02682256897833
 72
     1
 10
316.20211572622
 20
13.02682256897833
 11
315.1221037427865
 21
11.32172082439229
 97
        1
330
22AA9
 92
       16
 93
        4
 72
     1
 10
301.2085544168915
 20
21.16210731283036
 11
296.1068401311773
 21
18.78130731283045
 72
     1
 10
296.1068401311773
 20
18.78130731283045
 11
315.4764023006421
 21
18.78130731283045
 72
     1
 10
315.4764023006421
 20
18.78130731283045
 11
320.5781165863564
 21
21.16210731283036
 72
     1
 10
320.5781165863564
 20
21.16210731283036
 11
301.2085544168915
 21
21.16210731283036
 97
        1
330
22A9F
 75
     0
 76
     1
 98
        1
 10
0.0
 20
0.0
450
        0
451
        0
460
0.0
461
0.0
452
        0
462
0.0
453
        2
463
0.0
 63
     5
421
      255
463
1.0
 63
   254
421
 13750783
470
LINEAR
1001
ACAD
1010
0.0
1020
0.0
1030
0.0
1001
AcadAnnotative
1000
AnnotativeData
1002
{
1070
     1
1070
     0
1002
}
  0
LWPOLYLINE
  5
22A9F
102
{ACAD_REACTORS
330
22A9B
102
}
330
1F
100
AcDbEntity
  8
Logo Klinar
 62
     0
100
AcDbPolyline
 90
        4
 70
     1
 43
0.0
 10
301.2085544168915
 20
21.16210731283036
 10
296.1068401311773
 20
18.78130731283045
 10
315.4764023006421
 20
18.78130731283045
 10
320.5781165863564
 20
21.16210731283036
  0
LWPOLYLINE
  5
22AA0
330
1F
100
AcDbEntity
  8
Logo Klinar
 62
     0
100
AcDbPolyline
 90
       13
 70
     0
 43
0.0
 10
294.9843839757284
 20
10.1162686343032
 10
294.9843839757284
 20
14.78103113161615
 10
295.9260168738801
 20
14.78103113161615
 10
295.9260168738801
 20
12.70985500871893
 10
297.8288516391583
 20
14.78103113161615
 10
299.0952380496715
 20
14.78103113161615
 10
297.3390182640069
 20
12.96399779256217
 10
299.1908112697415
 20
10.1162686343032
 10
297.9722178145839
 20
10.1162686343032
 10
296.6906407063648
 20
12.30583575043283
 10
295.9260168738801
 20
11.52600852960086
 10
295.9260168738801
 20
10.1162686343032
 10
294.9843839757284
 20
10.1162686343032
  0
LWPOLYLINE
  5
22AA1
330
1F
100
AcDbEntity
  8
Logo Klinar
 62
     0
100
AcDbPolyline
 90
        7
 70
     0
 43
0.0
 10
299.9850370367726
 20
14.74300997010641
 10
299.9850370367726
 20
10.1162686343032
 10
303.268283625169
 20
10.1162686343032
 10
303.268283625169
 20
10.90260615415218
 10
300.9266699349243
 20
10.90260615415218
 10
300.9266699349243
 20
14.74300997010641
 10
299.9850370367726
 20
14.74300997010641
  0
LWPOLYLINE
  5
22AA2
330
1F
100
AcDbEntity
  8
Logo Klinar
 62
     0
100
AcDbPolyline
 90
        5
 70
     0
 43
0.0
 10
304.1928549695924
 20
10.1162686343032
 10
304.1928549695924
 20
14.78103113161615
 10
305.1345005583853
 20
14.78103113161615
 10
305.1345005583853
 20
10.1162686343032
 10
304.1928549695924
 20
10.1162686343032
  0
LWPOLYLINE
  5
22AA3
330
1F
100
AcDbEntity
  8
Logo Klinar
 62
     0
100
AcDbPolyline
 90
       11
 70
     0
 43
0.0
 10
306.3229864804978
 20
10.1162686343032
 10
306.3229864804978
 20
14.78103113161615
 10
307.2396315058149
 20
14.78103113161615
 10
309.1489892607513
 20
11.66612590083878
 10
309.1489892607513
 20
14.78103113161615
 10
310.0243770110121
 20
14.78103113161615
 10
310.0243770110121
 20
10.1162686343032
 10
309.078378532233
 20
10.1162686343032
 10
307.1983615401173
 20
13.15840572753132
 10
307.1983615401173
 20
10.1162686343032
 10
306.3229864804978
 20
10.1162686343032
  0
LWPOLYLINE
  5
22AA4
330
1F
100
AcDbEntity
  8
Logo Klinar
 62
     0
100
AcDbPolyline
 90
        9
 70
     0
 43
0.0
 10
310.8272831767324
 20
10.1162686343032
 10
312.6443165157864
 20
14.78103113161615
 10
313.6402526683105
 20
14.78103113161615
 10
315.508327766908
 20
10.1162686343032
 10
314.4830635422045
 20
10.1162686343032
 10
314.0757827890895
 20
11.17629252568713
 10
312.2109691853211
 20
11.17629252568713
 10
311.826493514727
 20
10.1162686343032
 10
310.8272831767324
 20
10.1162686343032
  0
LWPOLYLINE
  5
22AA5
102
{ACAD_REACTORS
330
22A9B
102
}
330
1F
100
AcDbEntity
  8
Logo Klinar
 62
     0
100
AcDbPolyline
 90
       17
 70
     1
 43
0.0
 10
314.3763140512813
 20
10.1442826814955
 10
314.2390161909675
 20
10.50162589267165
 10
310.2216686481486
 20
4.159116356719551
 10
304.9778985688104
 20
1.712023653028609
 10
311.4178877405971
 20
11.87935229416053
 10
311.9986962969567
 20
13.37042783669085
 10
310.1139770110121
 20
10.39486998009852
 10
310.1139770110121
 20
10.02666863430295
 10
309.8807581623198
 20
10.02666863430295
 10
304.5792122768146
 20
1.65669193308122
 10
300.1449632863453
 20
10.02666863430295
 10
299.8954370367726
 20
10.02666863430295
 10
299.8954370367726
 20
10.49766809774246
 10
298.1904405093853
 20
13.71597659610779
 10
297.965880073489
 20
13.48364018697112
 10
304.4999999999998
 20
1.150000000000546
 10
310.4330697436417
 20
3.918765880366664
  0
LWPOLYLINE
  5
22AA6
330
1F
100
AcDbEntity
  8
Logo Klinar
 62
     0
100
AcDbPolyline
 90
        4
 70
     0
 43
0.0
 10
312.5009503403605
 20
11.96153865037968
 10
313.1308883961087
 20
13.69277056320925
 10
313.7738470498905
 20
11.96153865037968
 10
312.5009503403605
 20
11.96153865037968
  0
LWPOLYLINE
  5
22AA7
330
1F
100
AcDbEntity
  8
Logo Klinar
 62
     0
100
AcDbPolyline
 90
       10
 70
     1
 43
0.0
 10
317.9686316940351
 20
13.99144480757923
 10
317.2344400195277
 20
13.99144480757923
 10
317.2344400195277
 20
12.80868972361804
 10
317.9306232231665
 20
12.80868972361804
 42
0.0147988967316367
 10
318.4590851142138
 20
12.82125728795199
 42
0.058257346423348
 10
318.7777742964051
 20
12.86516307766306
 42
0.1658697708695775
 10
319.0416888740945
 20
13.06283250746128
 42
0.1525807641704505
 10
319.1372620941645
 20
13.41256120201615
 42
0.1833164987053933
 10
319.0112820973995
 20
13.79268398262411
 42
0.179723471081284
 10
318.6561218083434
 20
13.97622872859074
 42
0.0180430538072079
  0
LWPOLYLINE
  5
22AA8
330
1F
100
AcDbEntity
  8
Logo Klinar
 62
     0
100
AcDbPolyline
 90
       21
 70
     1
 43
0.0
 10
317.8991250513152
 20
12.01150170540768
 42
-0.118474820577024
 10
318.1825959073376
 20
11.81708107979694
 42
-0.0291753177243312
 10
318.6789395815058
 20
11.13176106516084
 10
319.3599067061562
 20
10.1162686343032
 10
320.4861884360726
 20
10.1162686343032
 10
319.9159979198398
 20
11.02641605124472
 42
0.0424132652396169
 10
319.3805543473368
 20
11.78342553252605
 10
319.3805543796464
 20
11.78342549891431
 42
0.072629784800622
 10
318.8755176161474
 20
12.17550286368214
 42
0.1050091077409883
 10
319.5667733612086
 20
12.41107277193305
 10
319.56677336091
 20
12.41107277174297
 42
0.0674242033323161
 10
319.798698321764
 20
12.6055886993181
 42
0.1894775427783145
 10
320.1071443599801
 20
13.47337475540553
 42
0.1443724801157476
 10
319.9040433356802
 20
14.20865782506962
 42
0.1684309110713499
 10
319.360998101313
 20
14.65503844420982
 42
0.0753738131482506
 10
318.2749076325786
 20
14.78103113161615
 10
316.2917157262191
 20
14.78103113161615
 10
316.2917157262218
 20
10.1162686343032
 10
317.2344400195277
 20
10.11626863430411
 10
317.2344400195277
 20
12.06363486010787
 10
317.4244950645109
 20
12.06363486010787
 42
-0.0740245753887022
  0
LWPOLYLINE
  5
22AA9
102
{ACAD_REACTORS
330
22A9B
102
}
330
1F
100
AcDbEntity
  8
Logo Klinar
 62
     0
100
AcDbPolyline
 90
        4
 70
     1
 43
0.0
 10
315.1221037427865
 20
11.32172082439229
 10
314.9812490276879
 20
11.67344854297016
 10
316.2021157262197
 20
13.60092895013713
 10
316.20211572622
 20
13.02682256897833
  0
LWPOLYLINE
  5
22AAA
102
{ACAD_REACTORS
330
22A9B
102
}
330
1F
100
AcDbEntity
  8
Logo Klinar
 62
     0
100
AcDbPolyline
 90
       13
 70
     1
 43
0.0
 10
317.3699846520065
 20
14.87063113161594
 10
317.0063454888971
 20
14.87063113161594
 10
320.8599489858516
 20
20.95462477834508
 10
315.6161789065134
 20
18.50753207465368
 10
313.3125647007846
 20
14.87063113161594
 10
312.9489255376752
 20
14.87063113161594
 10
315.2313684887106
 20
18.47410731283026
 10
295.6696764642395
 20
18.47410731283026
 10
297.6558145924562
 20
14.72512301034476
 10
297.4353167991724
 20
14.48511805934504
 10
295.2031119034159
 20
18.69857179412475
 10
301.1404023006421
 20
21.4693073128301
 10
321.549588228823
 20
21.4693073128301
  0
LWPOLYLINE
  5
22AAB
330
1F
100
AcDbEntity
  8
Tabela
 62
     0
100
AcDbPolyline
 90
        4
 70
     1
 43
0.0
 10
0.0
 20
0.0
 10
410.0
 20
0.0
 10
410.0
 20
287.0
 10
0.0
 20
287.0
  0
LINE
  5
22AAC
330
1F
100
AcDbEntity
  8
Logo Klinar
 62
     0
100
AcDbLine
 10
293.9999999999998
 20
0.0
 30
0.0
 11
293.9999999999998
 21
22.5
 31
0.0
  0
LINE
  5
22AAD
330
1F
100
AcDbEntity
  8
Tabela
 62
     0
100
AcDbLine
 10
410.0
 20
22.5
 30
0.0
 11
0.0
 21
22.5
 31
0.0
  0
LINE
  5
22AAE
330
1F
100
AcDbEntity
  8
Tabela
 62
     0
100
AcDbLine
 10
34.0
 20
18.0
 30
0.0
 11
293.9999999999998
 21
18.0
 31
0.0
  0
MTEXT
  5
22AAF
330
1F
100
AcDbEntity
  8
Opis
 62
     0
100
AcDbMText
 10
1.0
 20
21.5
 30
0.0
 40
2.5
 41
31.99999999999997
 46
0.0
 71
     1
 72
     5
  1
\pxqc;{\fArial|b1|i0|c238|p34;Taśma rozprężna\Pklasy BG1}
 73
     1
 44
1.0
  0
LINE
  5
22AB0
330
1F
100
AcDbEntity
  8
Tabela
 62
     0
100
AcDbLine
 10
34.0
 20
22.5
 30
0.0
 11
34.0
 21
0.0
 31
0.0
  0
MTEXT
  5
22AB1
330
1F
100
AcDbEntity
  8
Opis
 62
     0
100
AcDbMText
 10
35.0
 20
21.5
 30
0.0
 40
2.5
 41
31.99999999999997
 46
0.0
 71
     1
 72
     5
  1
\pxqc;{\fArial|b1|i0|c238|p34;Listwa "T"}
 73
     1
 44
1.0
  0
LINE
  5
22AB2
330
1F
100
AcDbEntity
  8
Tabela
 62
     0
100
AcDbLine
 10
68.0
 20
22.5
 30
0.0
 11
68.0
 21
0.0
 31
0.0
  0
LWPOLYLINE
  5
22AB3
330
1F
100
AcDbEntity
  8
Szyna stalowa
 62
     0
100
AcDbPolyline
 90
       20
 70
     1
 43
0.0
 10
173.7500000000005
 20
12.69584793156582
 42
-0.4927734568109771
 10
175.0076626505611
 20
13.66208287116706
 10
178.6310436740655
 20
12.69584793156582
 10
178.3733810235049
 20
11.72961299196459
 10
175.3788313252808
 20
12.52815957815756
 42
0.4927734568109047
 10
174.7500000000005
 20
12.04504210835694
 10
174.7500000000005
 20
4.195847931565822
 42
0.414213562373095
 10
175.2500000000005
 20
3.695847931565822
 10
192.7500000000005
 20
3.695847931565368
 42
0.414213562373095
 10
193.2500000000005
 20
4.195847931565368
 10
193.2500000000005
 20
12.04504210835648
 42
0.4927734568109104
 10
192.6211686747206
 20
12.52815957815756
 10
189.626618976496
 20
11.72961299196413
 10
189.3689563259359
 20
12.69584793156537
 10
192.9923373494403
 20
13.6620828711666
 42
-0.4927734568109768
 10
194.2500000000005
 20
12.69584793156537
 10
194.2500000000005
 20
3.695847931565368
 42
-0.414213562373095
 10
193.2500000000005
 20
2.695847931565368
 10
174.7500000000005
 20
2.695847931565822
 42
-0.414213562373095
 10
173.7500000000005
 20
3.695847931565822
  0
LWPOLYLINE
  5
22AB5
330
1F
100
AcDbEntity
  8
Listwa T
 62
     0
100
AcDbPolyline
 90
       72
 70
     1
 43
0.0
 10
48.14999999999986
 20
14.125
 42
0.4142135623731616
 10
48.64999999999986
 20
13.625
 10
49.68177191970062
 20
13.625
 42
-0.4094401002027162
 10
50.18170529411941
 20
13.13316217754164
 10
50.20012458743145
 20
12.004980462204
 42
-0.1891233303524419
 10
50.13622832228316
 20
11.83393291562197
 42
0.3922774987377246
 10
50.14732768807698
 20
11.15409676074705
 42
-0.1891233303518537
 10
50.21677363612184
 20
10.98522622989094
 10
50.21985247858788
 20
10.79664712887097
 42
-0.1891233303524494
 10
50.15595621343959
 20
10.62559958228849
 42
0.39227749873789
 10
50.16705557923365
 20
9.945763427413112
 42
-0.1891233303520133
 10
50.23650152727873
 20
9.776892896557001
 10
50.23958036974432
 20
9.588313795537033
 42
-0.1891233303524402
 10
50.17568410459603
 20
9.417266248955457
 42
0.3922774987378695
 10
50.18678347039008
 20
8.737430094080082
 42
-0.1891233303520042
 10
50.25622941843517
 20
8.568559563223971
 10
50.25930826090075
 20
8.379980462203548
 42
-0.1891233303524402
 10
50.19541199575247
 20
8.208932915621972
 42
0.3922774987378695
 10
50.20651136154652
 20
7.529096760747052
 42
-0.1891233303520042
 10
50.2759573095916
 20
7.360226229890486
 10
50.27903615205719
 20
7.171647128870063
 42
-0.1891233303524393
 10
50.2151398869089
 20
7.000599582288487
 42
0.3922774987378896
 10
50.22623925270295
 20
6.320763427413112
 42
-0.1891233303520133
 10
50.29568520074804
 20
6.151892896557001
 10
50.29876404321362
 20
5.963313795537033
 42
-0.1891233303524393
 10
50.23486777806534
 20
5.792266248955457
 42
0.3922774987378692
 10
50.24596714385939
 20
5.112430094080082
 42
-0.189123330352006
 10
50.31541309190447
 20
4.943559563223971
 10
50.31849193437006
 20
4.754980462203548
 42
-0.1891233303523246
 10
50.25459566922177
 20
4.583932915621972
 42
0.3922774987378354
 10
50.26569503501582
 20
3.904096760747052
 42
-0.1891233303519369
 10
50.33514098306091
 20
3.735226229890941
 10
50.34517049030433
 20
3.120918911229637
 42
0.4094401002028916
 10
50.59513717751383
 20
2.875
 10
51.40486282248617
 20
2.875
 42
0.4094401002027847
 10
51.65482950969567
 20
3.120918911229637
 10
51.66485901693909
 20
3.735226229890486
 42
-0.1891233303519076
 10
51.73430496498418
 20
3.904096760747052
 42
0.3922774987377148
 10
51.74540433077777
 20
4.583932915621972
 42
-0.1891233303524731
 10
51.68150806562994
 20
4.754980462203548
 10
51.68458690809553
 20
4.943559563223971
 42
-0.1891233303517362
 10
51.75403285614061
 20
5.112430094080082
 42
0.3922774987376665
 10
51.76513222193421
 20
5.792266248955457
 42
-0.1891233303524237
 10
51.70123595678638
 20
5.963313795537033
 10
51.70431479925196
 20
6.151892896557001
 42
-0.1891233303520323
 10
51.77376074729705
 20
6.320763427413112
 42
0.3922774987377728
 10
51.78486011309064
 20
7.000599582288487
 42
-0.1891233303524302
 10
51.72096384794281
 20
7.171647128870063
 10
51.7240426904084
 20
7.360226229890486
 42
-0.1891233303520323
 10
51.79348863845348
 20
7.529096760747052
 42
0.3922774987377549
 10
51.80458800424708
 20
8.208932915621972
 42
-0.1891233303524282
 10
51.74069173909925
 20
8.379980462203548
 10
51.74377058156483
 20
8.568559563223971
 42
-0.1891233303520323
 10
51.81321652960992
 20
8.737430094080082
 42
0.3922774987377549
 10
51.82431589540352
 20
9.417266248955457
 42
-0.1891233303524282
 10
51.76041963025568
 20
9.588313795537033
 10
51.76349847272127
 20
9.776892896557001
 42
-0.1891233303520323
 10
51.83294442076635
 20
9.945763427413112
 42
0.3922774987377738
 10
51.84404378655995
 20
10.62559958228849
 42
-0.1891233303524348
 10
51.78014752141212
 20
10.79664712887006
 10
51.7832263638777
 20
10.98522622989049
 42
-0.1891233303520323
 10
51.85267231192279
 20
11.15409676074705
 42
0.3922774987377524
 10
51.86377167771639
 20
11.83393291562197
 42
-0.1891233303524339
 10
51.79987541256855
 20
12.00498046220355
 10
51.81829470588013
 20
13.13316217754164
 42
-0.4094401002027847
 10
52.31822808029915
 20
13.625
 10
53.34999999999968
 20
13.625
 42
0.414213562373145
 10
53.85000000000014
 20
14.125
 10
53.85000000000014
 20
14.625
 42
0.414213562373095
 10
53.34999999999991
 20
15.125
 10
48.64999999999986
 20
15.125
 42
0.414213562373095
 10
48.14999999999986
 20
14.625
  0
MTEXT
  5
22AB8
330
1F
100
AcDbEntity
  8
Opis
 62
     0
100
AcDbMText
 10
69.0
 20
21.5
 30
0.0
 40
2.5
 41
96.99999999999997
 46
0.0
 71
     1
 72
     5
  1
\pxqc;{\fArial|b1|i0|c238|p34;Listwy zaczepowe}
 73
     1
 44
1.0
  0
LINE
  5
22AB9
330
1F
100
AcDbEntity
  8
Tabela
 62
     0
100
AcDbLine
 10
167.0
 20
22.5
 30
0.0
 11
167.0
 21
0.0
 31
0.0
  0
MTEXT
  5
22ABA
330
1F
100
AcDbEntity
  8
Opis
 62
     0
100
AcDbMText
 10
168.0
 20
21.5
 30
0.0
 40
2.5
 41
31.99999999999997
 46
0.0
 71
     1
 72
     5
  1
\pxqc;{\fArial|b1|i0|c238|p34;Szyna stalowa}
 73
     1
 44
1.0
  0
LINE
  5
22ABB
330
1F
100
AcDbEntity
  8
Tabela
 62
     0
100
AcDbLine
 10
201.0
 20
22.5
 30
0.0
 11
201.0
 21
0.0
 31
0.0
  0
MTEXT
  5
22ABC
330
1F
100
AcDbEntity
  8
Opis
 62
     0
100
AcDbMText
 10
202.0
 20
21.5
 30
0.0
 40
2.5
 41
31.99999999999997
 46
0.0
 71
     1
 72
     5
  1
\pxqc;{\fArial|b1|i0|c238|p34;Klejo-uszczelniacz}
 73
     1
 44
1.0
  0
LINE
  5
22ABD
330
1F
100
AcDbEntity
  8
Tabela
 62
     0
100
AcDbLine
 10
235.0
 20
22.5
 30
0.0
 11
235.0
 21
0.0
 31
0.0
  0
HATCH
  5
22ABE
102
{ACAD_XDICTIONARY
360
22ABF
102
}
330
1F
100
AcDbEntity
  8
Klejo-uszczelniacz
 62
     0
100
AcDbHatch
 10
0.0
 20
0.0
 30
0.0
210
0.0
220
0.0
230
1.0
  2
SOLID
 70
     1
 71
     0
 91
        1
 92
        7
 72
     0
 73
     1
 93
        3
 10
218.0
 20
7.333333333333485
 10
220.5
 20
9.833333333333485
 10
215.5
 20
9.833333333333485
 97
        0
 75
     0
 76
     1
 47
0.0
 98
        1
 10
218.5183280516103
 20
9.108683442513666
450
        0
451
        0
460
0.0
461
0.0
452
        0
462
0.0
453
        2
463
0.0
 63
     5
421
      255
463
1.0
 63
   254
421
 13750783
470
LINEAR
1001
ACAD
1010
0.0
1020
0.0
1030
0.0
1001
AcadAnnotative
1000
AnnotativeData
1002
{
1070
     1
1070
     0
1002
}
  0
LWPOLYLINE
  5
22AC2
102
{ACAD_REACTORS
330
22ABE
102
}
330
1F
100
AcDbEntity
  8
Klejo-uszczelniacz
 62
     0
100
AcDbPolyline
 90
        3
 70
     1
 43
0.0
 10
218.0
 20
7.333333333333485
 10
220.5
 20
9.833333333333485
 10
215.5
 20
9.833333333333485
  0
HATCH
  5
22AC3
102
{ACAD_XDICTIONARY
360
22AC4
102
}
330
1F
100
AcDbEntity
  8
Taśma rozprężna
 62
     0
100
AcDbHatch
 10
0.0
 20
0.0
 30
0.0
210
0.0
220
0.0
230
1.0
  2
GRAVEL
 70
     0
 71
     1
 91
        1
 92
        7
 72
     0
 73
     1
 93
        4
 10
11.99999999999613
 20
4.250000000002274
 10
21.99999999999613
 20
4.250000000002274
 10
21.99999999999613
 20
9.250000000002274
 10
11.99999999999613
 20
9.250000000002274
 97
        1
330
22AC7
 75
     0
 76
     1
 52
0.0
 41
0.07
 77
     0
 78
    41
 53
228.0127875
 43
-86.35316302426008
 44
-2240.732718345639
 45
-14.22400000111707
 46
-16.00199999900725
 79
     2
 49
0.239205008
 49
-23.6813385476955
 53
184.9697409999995
 43
-86.51318302426012
 44
-2240.910518345639
 45
21.33599999155836
 46
1.778000101288547
 79
     2
 49
0.4104833039999998
 49
-40.63783422546676
 53
132.5104471
 43
-86.92212302425992
 44
-2240.946078345639
 45
17.78000000750926
 46
-19.55799999317217
 79
     2
 49
0.289437064
 49
-28.65430595587
 53
267.273689
 43
-87.61554302425998
 44
-2241.390578345639
 45
1.778000003723776
 46
35.55999999981321
 79
     2
 49
0.373803164
 49
-37.0065061980166
 53
292.83365418
 43
-87.63332302426011
 44
-2241.763958345639
 45
-8.890000000744388
 46
21.33599999968883
 79
     2
 49
0.36654359
 49
-36.2878654217408
 53
357.273689
 43
-87.49108302425998
 44
-2242.101778345639
 45
-35.55999999981321
 46
1.778000003723779
 79
     2
 49
0.373803164
 49
-37.0065061980166
 53
37.69424047
 43
-87.11770302425998
 44
-2242.119558345639
 45
-23.11399999897513
 46
-17.78000000133029
 79
     2
 49
0.4943355620000001
 49
-48.9391807199729
 53
72.25532837
 43
-86.72654302426008
 44
-2241.817298345639
 45
12.4460000033455
 46
39.1159999989352
 79
     2
 49
0.4667036640000001
 49
-46.20367962133351
 53
121.42956562
 43
-86.58430302426018
 44
-2241.372798345639
 45
-14.22400000201817
 46
23.11399999875822
 79
     2
 49
0.3750691
 49
-37.1318819890984
 53
175.2363583
 43
-86.77988302426002
 44
-2241.052758345639
 45
19.55799999971967
 46
-1.778000003072471
 79
     2
 49
0.4281992960000001
 49
-20.981755865
 53
222.3974377999998
 43
-87.20660302426018
 44
-2241.017198345639
 45
-21.33599999931727
 46
-19.55800000074478
 79
     2
 49
0.5537545439999988
 49
-54.82174075852382
 53
138.81407483
 43
-85.85532302426009
 44
-2241.408358345639
 45
-12.44599999925346
 46
10.66800000086743
 79
     2
 49
0.189003178000001
 49
-18.71139607704087
 53
171.4692344
 43
-85.99756302425999
 44
-2241.283898345639
 45
23.11400000062276
 46
-3.55599999596614
 79
     2
 49
0.359577385999999
 49
-35.59824729792788
 53
225.0
 43
-86.35316302426008
 44
-2241.230558345639
 45
-0.0000000000000002
 46
-1.778000000000168
 79
     2
 49
0.2514465380000001
 49
-2.263025175899601
 53
203.1985905099998
 43
-86.47762302426008
 44
-2241.017198345639
 45
8.890000000242264
 46
3.555999999376534
 79
     2
 49
0.135408924
 49
-13.4054356582258
 53
291.80140949
 43
-86.60208302426008
 44
-2241.070538345639
 45
-1.778000000372042
 46
5.333999999876013
 79
     2
 49
0.191495934
 49
-9.383327093
 53
30.96375653
 43
-86.53096302426002
 44
-2241.248338345639
 45
5.334000000130469
 46
3.555999999804787
 79
     2
 49
0.311023761999999
 49
-10.05640870703697
 53
161.56505118
 43
-86.26426302426012
 44
-2241.088318345639
 45
3.556000000092808
 46
-1.777999999813628
 79
     2
 49
0.2249009979999995
 49
-5.397628681779584
 53
16.389540334
 43
-87.63332302426011
 44
-2241.070538345639
 45
17.7800000000001
 46
5.334000000000168
 79
     2
 49
0.3150616000000001
 49
-31.1911786707773
 53
70.34617594
 43
-87.33106302426017
 44
-2240.981638345639
 45
-7.112000000650522
 46
-19.55799999976929
 79
     2
 49
0.264319258
 49
-26.16755097474
 53
293.19859051
 43
-86.26426302426012
 44
-2240.732718345639
 45
-3.555999999379284
 46
8.890000000248701
 79
     2
 49
0.27081607
 49
-13.2700285122258
 53
343.61045967
 43
-86.15758302426002
 44
-2240.981638345639
 45
-17.7800000003726
 46
5.333999998756018
 79
     2
 49
0.3150616000000001
 49
-31.191178670778
 53
339.44395478
 43
-87.63332302426011
 44
-2242.172898345639
 45
-8.889999999999905
 46
3.556000000000147
 79
     2
 49
0.303824639999999
 49
-14.88741401917417
 53
294.7751406
 43
-87.34884302426008
 44
-2242.279578345639
 45
-8.890000010581835
 46
19.55799999518909
 79
     2
 49
0.254570483999999
 49
-25.20251536650394
 53
66.80140949
 43
-86.24648302425999
 44
-2242.510718345639
 45
3.55599999944161
 46
8.890000000223514
 79
     2
 49
0.270816069999999
 49
-13.27002851222577
 53
17.35402464
 43
-86.13980302426012
 44
-2242.261798345639
 45
-23.11399999954012
 46
-7.112000001492725
 79
     2
 49
0.298047918
 49
-29.50666318614
 53
69.44395478
 43
-87.11770302425998
 44
-2242.510718345639
 45
-3.556000000061922
 46
-8.889999999975242
 79
     2
 49
0.1519123199999995
 49
-15.03932633917417
 53
101.309932474
 43
-86.35316302426008
 44
-2242.510718345639
 45
-1.77800000000028
 46
7.112000000000259
 79
     2
 49
0.0906602199999997
 49
-8.975396475168168
 53
165.963756532
 43
-86.37094302425999
 44
-2242.421818345639
 45
5.333999999999659
 46
-1.77799999999991
 79
     2
 49
0.36654359
 49
-6.9643382123483
 53
186.0090059599996
 43
-86.72654302426008
 44
-2242.332918345639
 45
17.77999999990576
 46
1.778000000930556
 79
     2
 49
0.3396869000000002
 49
-33.62895540433593
 53
303.69006753
 43
-86.53096302426002
 44
-2241.408358345639
 45
-1.778000000247078
 46
3.555999999876591
 79
     2
 49
0.256426716
 49
-6.154243451776001
 53
353.15722659
 43
-86.38872302426012
 44
-2241.621718345639
 45
30.22600000018598
 46
-3.555999998417576
 79
     2
 49
0.447689732
 49
-44.32120634552171
 53
60.94539590000001
 43
-85.94422302426005
 44
-2241.675058345639
 45
-7.112000000195781
 46
-12.44599999988818
 79
     2
 49
0.183055768
 49
-18.122574622677
 53
180.0
 43
-85.85532302426009
 44
-2241.515038345639
 45
-1.778000000000001
 46
-1.777999999999999
 79
     2
 49
0.10668
 49
-1.67132
 53
120.25643716
 43
-86.76210302426011
 44
-2242.279578345639
 45
7.111999999130016
 46
-12.44600000049686
 79
     2
 49
0.247006872
 49
-24.45375854124
 53
48.0127875
 43
-86.88656302426011
 44
-2242.066218345639
 45
14.22400000117274
 46
16.00199999895715
 79
     2
 49
0.478410015999999
 49
-23.44213353969544
 53
0.0
 43
-86.56652302426005
 44
-2241.710618345639
 45
1.778
 46
1.778
 79
     2
 49
0.46228
 49
-1.31572
 53
325.3048465
 43
-86.10424302426009
 44
-2241.710618345639
 45
17.78000000673507
 46
-12.4459999903782
 79
     2
 49
0.281126692000001
 49
-27.83152170689813
 53
254.0546041
 43
-85.87310302425999
 44
-2241.870638345639
 45
-1.777999999875783
 46
-7.112000000031324
 79
     2
 49
0.258880356
 49
-12.6851550271404
 53
207.64597536
 43
-85.94422302426005
 44
-2242.119558345639
 45
-33.78200000124134
 46
-17.77999999764153
 79
     2
 49
0.421501569999999
 49
-41.72872509605648
 53
175.42607874
 43
-86.31760302426005
 44
-2242.315138345639
 45
-23.11399999999918
 46
1.777999999999635
 79
     2
 49
0.445920622
 49
-44.146092519368
 47
0.0
 98
        1
 10
17.23724866331463
 20
5.326118607340959
1001
ACAD
1010
0.0
1020
0.0
1030
0.0
1001
AcadAnnotative
1000
AnnotativeData
1002
{
1070
     1
1070
     0
1002
}
  0
LWPOLYLINE
  5
22AC7
102
{ACAD_REACTORS
330
22AC3
102
}
330
1F
100
AcDbEntity
  8
Taśma rozprężna
 62
     0
100
AcDbPolyline
 90
        4
 70
     1
 43
0.0
 10
11.99999999999613
 20
4.250000000002274
 10
21.99999999999613
 20
4.250000000002274
 10
21.99999999999613
 20
9.250000000002274
 10
11.99999999999613
 20
9.250000000002274
  0
LINE
  5
22AC8
330
1F
100
AcDbEntity
  8
Tabela
 62
     0
100
AcDbLine
 10
254.6666666666665
 20
22.5
 30
0.0
 11
254.6666666666665
 21
0.0
 31
0.0
  0
LINE
  5
22AC9
330
1F
100
AcDbEntity
  8
Tabela
 62
     0
100
AcDbLine
 10
274.333333333333
 20
22.5
 30
0.0
 11
274.333333333333
 21
0.0
 31
0.0
  0
MTEXT
  5
22ACA
330
1F
100
AcDbEntity
  8
Opis
 62
     0
100
AcDbMText
 10
235.8333333333333
 20
21.5
 30
0.0
 40
2.5
 41
17.99999999999997
 46
0.0
 71
     1
 72
     5
  1
\pxqc;{\fArial|b1|i0|c238|p34;EPS}
 73
     1
 44
1.0
  0
MTEXT
  5
22ACB
330
1F
100
AcDbEntity
  8
Opis
 62
     0
100
AcDbMText
 10
255.5
 20
21.5
 30
0.0
 40
2.5
 41
17.99999999999997
 46
0.0
 71
     1
 72
     5
  1
\pxqc;{\fArial|b1|i0|c238|p34;XPS}
 73
     1
 44
1.0
  0
MTEXT
  5
22ACC
330
1F
100
AcDbEntity
  8
Opis
 62
     0
100
AcDbMText
 10
275.1666666666665
 20
21.5
 30
0.0
 40
2.5
 41
17.99999999999997
 46
0.0
 71
     1
 72
     5
  1
\pxqc;{\fArial|b1|i0|c238|p34;Klinaryt}
 73
     1
 44
1.0
  0
LINE
  5
22ACD
330
1F
100
AcDbEntity
  8
Tabela
 62
     0
100
AcDbLine
 10
0.0
 20
13.5
 30
0.0
 11
34.0
 21
13.5
 31
0.0
  0
HATCH
  5
22AF9
102
{ACAD_XDICTIONARY
360
22AFA
102
}
330
1F
100
AcDbEntity
  8
EPS
 62
     0
100
AcDbHatch
 10
0.0
 20
0.0
 30
0.0
210
0.0
220
0.0
230
1.0
  2
HONEY
 70
     0
 71
     1
 91
        1
 92
        7
 72
     0
 73
     1
 93
        4
 10
238.0
 20
15.0
 10
238.0
 20
3.0
 10
251.6666666666665
 20
3.0
 10
251.6666666666665
 20
15.0
 97
        1
330
22AFD
 75
     0
 76
     1
 52
0.0
 41
0.5
 77
     0
 78
     3
 53
0.0
 43
-525.3794556895562
 44
-2226.691832393223
 45
2.38125
 46
1.3748153225
 79
     2
 49
1.5875
 49
-3.175
 53
120.0
 43
-525.3794556895562
 44
-2226.691832393223
 45
-2.381249994797095
 46
1.374815331511695
 79
     2
 49
1.5875
 49
-3.175
 53
60.0
 43
-525.3794556895562
 44
-2226.691832393223
 45
0.0000000052029046
 46
2.749630654011694
 79
     2
 49
-3.175
 49
1.5875
 47
0.0
 98
        1
 10
246.2017329616242
 20
8.073957461703685
1001
ACAD
1010
0.0
1020
0.0
1030
0.0
1001
AcadAnnotative
1000
AnnotativeData
1002
{
1070
     1
1070
     0
1002
}
  0
LWPOLYLINE
  5
22AFD
102
{ACAD_REACTORS
330
22AF9
102
}
330
1F
100
AcDbEntity
  8
EPS
 62
     0
100
AcDbPolyline
 90
        4
 70
     1
 43
0.0
 10
238.0
 20
15.0
 10
251.6666666666665
 20
15.0
 10
251.6666666666665
 20
3.0
 10
238.0
 20
3.0
  0
HATCH
  5
22AFE
102
{ACAD_XDICTIONARY
360
22AFF
102
}
330
1F
100
AcDbEntity
  8
XPS
 62
     0
100
AcDbHatch
 10
0.0
 20
0.0
 30
0.0
210
0.0
220
0.0
230
1.0
  2
ANSI37
 70
     0
 71
     1
 91
        1
 92
        7
 72
     0
 73
     1
 93
        4
 10
257.6666666666665
 20
15.0
 10
257.6666666666665
 20
3.0
 10
271.3333333333333
 20
3.0
 10
271.3333333333333
 20
15.0
 97
        1
330
22B02
 75
     0
 76
     1
 52
0.0
 41
0.75
 77
     0
 78
     2
 53
45.0
 43
-525.3794556895562
 44
-2226.691832393223
 45
-1.683798022700466
 46
1.683798022700466
 79
     0
 53
135.0
 43
-525.3794556895562
 44
-2226.691832393223
 45
-1.683798022700466
 46
-1.683798022700466
 79
     0
 47
0.0
 98
        1
 10
264.8673719302908
 20
7.967368324159906
1001
ACAD
1010
0.0
1020
0.0
1030
0.0
1001
AcadAnnotative
1000
AnnotativeData
1002
{
1070
     1
1070
     0
1002
}
  0
LWPOLYLINE
  5
22B02
102
{ACAD_REACTORS
330
22AFE
102
}
330
1F
100
AcDbEntity
  8
XPS
 62
     0
100
AcDbPolyline
 90
        4
 70
     1
 43
0.0
 10
257.6666666666665
 20
15.0
 10
271.3333333333333
 20
15.0
 10
271.3333333333333
 20
3.0
 10
257.6666666666665
 20
3.0
  0
HATCH
  5
22B03
102
{ACAD_XDICTIONARY
360
22B04
102
}
330
1F
100
AcDbEntity
  8
Klinaryt
 62
     0
100
AcDbHatch
 10
0.0
 20
0.0
 30
0.0
210
0.0
220
0.0
230
1.0
  2
OCTAGON
 70
     0
 71
     1
 91
        1
 92
        7
 72
     0
 73
     1
 93
        4
 10
277.333333333333
 20
15.0
 10
277.333333333333
 20
3.0
 10
290.9999999999998
 20
3.0
 10
290.9999999999998
 20
15.0
 97
        1
330
22B07
 75
     0
 76
     1
 52
0.0
 41
0.1
 77
     0
 78
     6
 53
315.0
 43
0.0
 44
-1227.2634
 45
2.54000081428461
 46
-0.0000000000000007
 79
     2
 49
1.0417099
 49
-2.55039368
 53
0.0
 43
0.7365999999999531
 44
-1228.0
 45
2.54
 46
2.54
 79
     2
 49
1.0668
 49
-1.4732
 53
45.0
 43
1.803400000000011
 44
-1228.0
 45
0.0000000000000002
 46
2.54000081428461
 79
     2
 49
1.0417099
 49
-2.55039368
 53
135.0
 43
2.539999999999964
 44
-1226.1966
 45
-2.54000081428461
 46
0.0000000000000002
 79
     2
 49
1.0417099
 49
-2.55039368
 53
225.0
 43
0.7365999999999531
 44
-1225.46
 45
-0.0000000000000005
 46
-2.54000081428461
 79
     2
 49
1.0417099
 49
-2.550393680000001
 53
270.0
 43
0.0
 44
-1226.1966
 45
2.54
 46
-2.54
 79
     2
 49
1.0668
 49
-1.4732
 47
0.0
 98
        1
 10
285.5872030276473
 20
8.321620457760673
1001
ACAD
1010
0.0
1020
0.0
1030
0.0
1001
AcadAnnotative
1000
AnnotativeData
1002
{
1070
     1
1070
     0
1002
}
  0
LWPOLYLINE
  5
22B07
102
{ACAD_REACTORS
330
22B03
102
}
330
1F
100
AcDbEntity
  8
Klinaryt
 62
     0
100
AcDbPolyline
 90
        4
 70
     1
 43
0.0
 10
277.333333333333
 20
15.0
 10
290.9999999999998
 20
15.0
 10
290.9999999999998
 20
3.0
 10
277.333333333333
 20
3.0
  0
LWPOLYLINE
  5
22DC2
330
1F
100
AcDbEntity
  8
PCV
 62
     0
100
AcDbPolyline
 90
        8
 70
     1
 43
0.0
 10
173.5012106104367
 20
169.0294702478696
 10
180.1012106376159
 20
169.0294702478696
 42
0.414213562373095
 10
180.6012106376159
 20
169.5294702478696
 10
180.6012106376159
 20
184.7794702478696
 42
0.414213562373095
 10
180.1012106376159
 20
185.2794702478696
 10
173.5007451206168
 20
185.2794702478696
 42
0.4142225026512935
 10
173.0007451208497
 20
184.7794549859082
 10
173.0012106106699
 20
169.5294549859082
 42
0.4142046221514142
1001
AcDbBlockRepETag
1070
     1
1071
     1397
1005
0
  0
LWPOLYLINE
  5
22DC3
330
1F
100
AcDbEntity
  8
PCV
 62
     0
100
AcDbPolyline
 90
        8
 70
     1
 43
0.0
 10
249.4012106376179
 20
169.5294702478691
 10
249.4012106376152
 20
174.5294702478691
 42
0.4142135623729119
 10
248.9012106376152
 20
175.0294702478687
 10
243.9012106376152
 20
175.0294702478687
 42
0.414213562373145
 10
243.4012106376152
 20
174.5294702478687
 10
243.4012106376161
 20
169.5294702478687
 42
0.4142135623730451
 10
243.9012106376161
 20
169.0294702478687
 10
248.9012106376179
 20
169.0294702478687
 42
0.4142135623732615
1001
AcDbBlockRepETag
1070
     1
1071
     2421
1005
22DC3
  0
LWPOLYLINE
  5
22DC4
330
1F
100
AcDbEntity
  8
PCV
 62
     0
100
AcDbPolyline
 90
        8
 70
     1
 43
0.0
 10
243.4012106376179
 20
197.8294702478698
 10
243.4012106376179
 20
195.4294702478692
 42
0.414213562373095
 10
243.9012106376179
 20
194.9294702478692
 10
248.9012106376161
 20
194.9294702478692
 42
0.414213562373095
 10
249.4012106376161
 20
195.4294702478692
 10
249.4012106376161
 20
197.8294702478698
 42
0.414213562373095
 10
248.9012106376161
 20
198.3294702478698
 10
243.9012106376179
 20
198.3294702478698
 42
0.414213562373095
1001
AcDbBlockRepETag
1070
     1
1071
     1404
1005
0
  0
LWPOLYLINE
  5
22DC5
330
1F
100
AcDbEntity
  8
PCV
 62
     0
100
AcDbPolyline
 90
       10
 70
     1
 43
0.0
 10
242.7012106376172
 20
197.8604368378929
 10
242.7012106376172
 20
195.4294702478692
 42
-0.414213562373095
 10
242.2012106376172
 20
194.9294702478692
 10
237.4012106376152
 20
194.9294702478692
 42
-0.4142135623731783
 10
236.9012106376152
 20
195.4294702478692
 10
236.901210637617
 20
201.8294702478698
 42
-0.4142135623730284
 10
237.401210637617
 20
202.3294702478698
 10
239.1259674906976
 20
202.3294702478698
 42
-0.2373650135746797
 10
239.928905536501
 20
201.9255327400643
 10
242.5041486834205
 20
198.4564993300874
 42
-0.1610173535372384
1001
AcDbBlockRepETag
1070
     1
1071
     1414
1005
0
  0
LWPOLYLINE
  5
22DC6
330
1F
100
AcDbEntity
  8
PCV
 62
     0
100
AcDbPolyline
 90
        5
 70
     1
 43
0.0
 10
198.9012106376311
 20
205.3294702478702
 10
198.9012106376306
 20
206.4266573059591
 42
0.5773502691894393
 10
198.1512106376306
 20
206.8596700078506
 10
194.6348015038296
 20
204.8294702478698
 10
198.4012106376311
 20
204.8294702478698
 42
0.4142135623732615
1001
AcDbBlockRepETag
1070
     1
1071
     2401
1005
22DC6
  0
LWPOLYLINE
  5
22DC7
330
1F
100
AcDbEntity
  8
PCV
 62
     0
100
AcDbPolyline
 90
       10
 70
     1
 43
0.0
 10
177.7012106376172
 20
226.3230252381891
 10
177.7012106376172
 20
198.62947024787
 42
-0.414213562373095
 10
177.2012106376172
 20
198.12947024787
 10
173.5012106376146
 20
198.12947024787
 42
-0.4142135623730784
 10
173.0012106376146
 20
198.62947024787
 10
173.0012106376128
 20
226.6796037670456
 42
-0.3394542588634225
 10
173.7423915925104
 20
227.6455295933347
 10
175.9437181587385
 20
228.2353732690331
 42
-0.3502689114027752
 10
177.0872409356619
 20
227.7356011801549
 10
177.5859143694382
 20
226.7891789755996
 42
-0.1218320387561712
1001
AcDbBlockRepETag
1070
     1
1071
     1422
1005
0
  0
LWPOLYLINE
  5
22DC8
330
1F
100
AcDbEntity
  8
PCV
 62
     0
100
AcDbPolyline
 90
       16
 70
     1
 43
0.0
 10
185.6891175140616
 20
200.0933559617643
 10
181.3757661488219
 20
195.7800045965278
 42
-0.4142135623730715
 10
180.6686593676353
 20
195.7800045965283
 10
178.5476572470237
 20
197.9010067171394
 42
-0.1989123673796371
 10
178.401210637617
 20
198.2545601077327
 10
178.401210637617
 20
223.2202973312106
 42
-0.7827980757418282
 10
179.3435625035275
 20
223.4533741999158
 10
180.6645001656805
 20
220.9463933791649
 42
0.2783354681749372
 10
181.106852031591
 20
220.6794702478701
 10
182.7012106376172
 20
220.6794702478701
 42
-0.414213562373095
 10
183.2012106376172
 20
220.1794702478701
 10
183.2012106376172
 20
216.8219210669923
 42
-0.0655434628152415
 10
183.1841735507617
 20
216.6925115444411
 10
180.4298600453465
 20
206.4132736022594
 42
0.2679491924311045
 10
180.5592695678977
 20
205.9303106891148
 10
185.689117514062
 20
200.800462742951
 42
-0.414213562373307
1001
AcDbBlockRepETag
1070
     1
1071
     1436
1005
0
  0
LWPOLYLINE
  5
22DC9
330
1F
100
AcDbEntity
  8
PCV
 62
     0
100
AcDbPolyline
 90
       10
 70
     1
 43
0.0
 10
202.7012106376117
 20
202.3294702478707
 10
190.4386490811256
 20
202.3294702478707
 42
0.1316524975873621
 10
190.1886490811256
 20
202.2624829497632
 10
189.7512106376115
 20
202.0099277466471
 42
0.2679491924314075
 10
189.501210637611
 20
201.5769150447541
 10
189.5012106376146
 20
169.5294702478696
 42
0.4142135623730617
 10
190.0012106376146
 20
169.0294702478696
 10
202.7012106376117
 20
169.0294702478696
 42
0.414213562373095
 10
203.2012106376117
 20
169.5294702478696
 10
203.2012106376117
 20
201.8294702478707
 42
0.414213562373095
1001
AcDbBlockRepETag
1070
     1
1071
     1437
1005
0
  0
LWPOLYLINE
  5
22DCA
330
1F
100
AcDbEntity
  8
PCV
 62
     0
100
AcDbPolyline
 90
        8
 70
     1
 43
0.0
 10
182.2012106376163
 20
169.0294702478696
 10
188.3012106376175
 20
169.0294702478696
 42
0.4142135623731616
 10
188.8012106376175
 20
169.5294702478696
 10
188.8012106376107
 20
200.4427073855123
 42
0.6681786379192457
 10
187.9476572470174
 20
200.7962607761056
 10
181.8476572470211
 20
194.6962607761098
 42
0.1989123673796624
 10
181.7012106376145
 20
194.3427073855165
 10
181.7012106376163
 20
169.5294702478696
 42
0.4142135623730784
1001
AcDbBlockRepETag
1070
     1
1071
     1439
1005
0
  0
LWPOLYLINE
  5
22DCB
330
1F
100
AcDbEntity
  8
PCV
 62
     0
100
AcDbPolyline
 90
       10
 70
     1
 43
0.0
 10
173.5012106381508
 20
197.4294702478701
 10
177.8221374414455
 20
197.4294702478701
 42
-0.1989123673796789
 10
178.1756908320388
 20
197.2830236384635
 10
180.4547640282092
 20
195.003950442293
 42
-0.1989123673796371
 10
180.6012106376159
 20
194.6503970516997
 10
180.6012106376159
 20
186.8794702478691
 42
-0.414213562373095
 10
180.1012106376159
 20
186.3794702478691
 10
173.5007451209206
 20
186.3794702478691
 42
-0.4142271292879235
 10
173.0007451214568
 20
186.8794934079306
 10
173.0012106386874
 20
196.9294934079317
 42
-0.4141999955884162
1001
AcDbBlockRepETag
1070
     1
1071
     2410
1005
22DCB
  0
LWPOLYLINE
  5
22DCC
330
1F
100
AcDbEntity
  8
PCV
 62
     0
100
AcDbPolyline
 90
        8
 70
     1
 43
0.0
 10
242.7012106376172
 20
169.5294702478696
 10
242.7012106376172
 20
174.5294702478687
 42
0.414213562373095
 10
242.2012106376172
 20
175.0294702478687
 10
237.401210637617
 20
175.0294702478687
 42
0.414213562373095
 10
236.901210637617
 20
174.5294702478687
 10
236.901210637617
 20
169.5294702478687
 42
0.414213562373095
 10
237.401210637617
 20
169.0294702478687
 10
242.2012106376172
 20
169.0294702478696
 42
0.414213562373095
  0
LWPOLYLINE
  5
22DCD
330
1F
100
AcDbEntity
  8
PCV
 62
     0
100
AcDbPolyline
 90
        8
 70
     1
 43
0.0
 10
242.7012106376172
 20
176.6294702478691
 10
242.7012106376172
 20
193.3294702478689
 42
0.414213562373095
 10
242.2012106376172
 20
193.8294702478689
 10
237.4012106376152
 20
193.8294702478689
 42
0.4142135623731117
 10
236.9012106376152
 20
193.3294702478689
 10
236.9012106376161
 20
176.6294702478691
 42
0.4142135623730784
 10
237.4012106376161
 20
176.1294702478691
 10
242.2012106376172
 20
176.1294702478691
 42
0.414213562373095
  0
LWPOLYLINE
  5
22DCE
330
1F
100
AcDbEntity
  8
PCV
 62
     0
100
AcDbPolyline
 90
      171
 70
     1
 43
0.0
 10
251.0369970752461
 20
207.8294702478698
 10
250.951210637619
 20
207.8294702478698
 10
248.1680736874176
 20
207.6446144955999
 42
0.4462747437018579
 10
247.7088067611115
 20
207.0588896726213
 10
247.9056306095957
 20
205.942646159037
 42
0.3639702342665635
 10
248.3980344861018
 20
205.5294702478696
 10
248.9012106376184
 20
205.5294702478696
 42
-0.4142135623728786
 10
249.9012106376184
 20
204.5294702478705
 10
249.9012106376202
 20
201.8294702478707
 42
-0.4142135623732948
 10
248.9012106376202
 20
200.8294702478698
 10
244.0432553685994
 20
200.8294702478698
 42
-0.1989123673798669
 10
243.3361485874123
 20
201.122363466684
 10
243.0089839849982
 20
201.4495280690981
 42
-0.2516465510568433
 10
242.7361660615646
 20
202.3560027847007
 10
243.6911729899219
 20
207.0500118033524
 42
0.4541463392930049
 10
243.2343475878118
 20
207.6485965047069
 10
240.7998356764572
 20
207.8102966074453
 42
0.5139301915109904
 10
240.2837358131126
 20
207.1819863507481
 10
240.5767910565076
 20
206.0882892929718
 42
-0.4931454260311801
 10
239.6108652302185
 20
204.8294702478698
 10
206.901210637627
 20
204.8294702478698
 42
-0.4142135623747433
 10
206.401210637627
 20
205.3294702478725
 10
206.4012106376306
 20
205.9872052747842
 42
0.2679491924312757
 10
206.1512106376329
 20
206.4202179766781
 10
205.9512106376304
 20
206.535688030519
 42
0.577350269191368
 10
205.2012106376281
 20
206.1026753286279
 10
205.2012106376281
 20
205.3294702478698
 42
-0.414213562373095
 10
204.7012106376281
 20
204.8294702478698
 10
201.9012106376306
 20
204.8294702478698
 42
-0.414213562373095
 10
201.4012106376306
 20
205.3294702478698
 10
201.4012106376306
 20
209.6020837865017
 42
-0.2679491924311277
 10
201.6512106376306
 20
210.0350964883938
 10
204.6431317530226
 20
211.7624829497591
 42
-0.1316524975894729
 10
204.8931317530267
 20
211.8294702478671
 10
205.2012106376281
 20
211.8294702478643
 10
205.2012106376281
 20
210.8562651671091
 42
0.5773502691896006
 10
205.9512106376281
 20
210.4232524652171
 10
206.1512106376343
 20
210.538722519058
 42
0.2679491924328716
 10
206.4012106376343
 20
210.9717352209537
 10
206.401210637622
 20
212.8294702478698
 42
0.414213562370914
 10
205.9012106376225
 20
213.3294702478661
 10
204.4912079643776
 20
213.329470247868
 42
0.1316524975876296
 10
204.2412079643771
 20
213.26248294976
 10
187.1527506962614
 20
203.3964575459777
 42
-0.339454258863412
 10
186.5491973056681
 20
203.4759168572764
 10
183.3476572470238
 20
206.6774569159216
 42
-0.2679491924310938
 10
183.2182477244726
 20
207.1604198290661
 10
185.6841735507617
 20
216.3633803004732
 42
0.0655434628152415
 10
185.7012106376172
 20
216.4927898230245
 10
185.7012106376172
 20
224.3604103555477
 42
0.267949192429763
 10
185.6012106376182
 20
224.533615436304
 10
184.8012106376225
 20
224.9954956516595
 42
0.577350269189304
 10
184.5012106376215
 20
224.8222905709045
 10
184.5012106376128
 20
223.3794702478691
 42
-0.4142135623713469
 10
184.3012106376125
 20
223.1794702478701
 10
181.6395794390181
 20
223.1794702478701
 42
-0.2783354681750581
 10
181.4626386926537
 20
223.2862395003881
 10
178.6115135941153
 20
228.6973320480466
 42
-0.4811864385754357
 10
178.7366905314591
 20
228.9837479607864
 10
184.2494468285961
 20
230.4608865586743
 42
-0.4931454260312694
 10
184.5012106376165
 20
230.2677013934163
 10
184.5012106376165
 20
228.5366499248385
 42
0.5773502691910803
 10
184.8012106376171
 20
228.3634448440826
 10
185.6012106376159
 20
228.8253250594371
 42
0.2679491924303477
 10
185.7012106376154
 20
228.9985301401935
 10
185.7012106376172
 20
232.6597927851536
 42
0.4931454260314133
 10
185.4494468285964
 20
232.8529779504116
 10
170.9423915925111
 20
228.9658242153478
 42
0.3394542588634145
 10
170.2012106376135
 20
227.9998983890587
 10
170.2012106376172
 20
160.8294702478693
 42
0.4142135623732116
 10
171.2012106376176
 20
159.8294702478698
 10
172.8183679251431
 20
159.8294702478698
 42
0.1989123673799975
 10
172.9597892813807
 20
159.888048891633
 10
174.3426319938552
 20
161.2708916041102
 42
0.1989123673797625
 10
174.4012106376179
 20
161.4123129603477
 10
174.4012106376179
 20
162.12947024787
 42
0.414213562373761
 10
174.2012106376176
 20
162.3294702478702
 10
173.5041543627643
 20
162.3294702478689
 42
0.198912367381016
 10
173.3627330065263
 20
162.2708916041057
 10
172.5190666805191
 20
161.4272252780889
 42
-0.7002075382133078
 10
172.1784063846624
 20
161.5860777828757
 10
172.5310336606461
 20
165.6166259906195
 42
-0.3888787318521962
 10
173.5272283587377
 20
166.5294702478696
 10
181.2052383513799
 20
166.5294702478696
 42
-0.3888787318531366
 10
182.201433049472
 20
165.6166259906168
 10
182.5281779465921
 20
161.8819147268524
 42
-0.700207538213742
 10
182.1875176507349
 20
161.7230622220673
 10
181.6396882687098
 20
162.2708916041047
 42
0.198912367381992
 10
181.4982669124714
 20
162.3294702478689
 10
180.8012106376212
 20
162.3294702478702
 42
0.4142135623716383
 10
180.6012106376209
 20
162.1294702478718
 10
180.6012106376155
 20
161.4123129603464
 42
0.1989123673814739
 10
180.6597892813782
 20
161.2708916041075
 10
182.0426319938559
 20
159.8880488916316
 42
0.1989123673799355
 10
182.1840533500934
 20
159.8294702478689
 10
184.5183679251421
 20
159.8294702478698
 42
0.1989123673799453
 10
184.6597892813796
 20
159.888048891633
 10
186.0426319938559
 20
161.2708916041107
 42
0.1989123673803571
 10
186.1012106376182
 20
161.4123129603486
 10
186.1012106376159
 20
162.1294702478709
 42
0.4142135623720961
 10
185.9012106376156
 20
162.3294702478702
 10
185.2041543627668
 20
162.3294702478689
 42
0.1989123673800072
 10
185.0627330065293
 20
162.2708916041061
 10
184.5149036244955
 20
161.7230622220696
 42
-0.7002075382105405
 10
184.1742433286393
 20
161.881914726856
 10
184.5009882257626
 20
165.6166259906173
 42
-0.388878731852897
 10
185.4971829238542
 20
166.5294702478696
 10
225.0552383513858
 20
166.5294702478687
 42
-0.3888787318536255
 10
226.0514330494778
 20
165.6166259906141
 10
226.3925594660353
 20
161.7175332074121
 42
-0.7002075382083182
 10
226.0518991701795
 20
161.5586807026253
 10
225.3396882686969
 20
162.2708916041061
 42
0.1989123673790932
 10
225.1982669124598
 20
162.3294702478689
 10
224.5012106376178
 20
162.3294702478693
 42
0.414213562373761
 10
224.3012106376175
 20
162.1294702478691
 10
224.3012106376175
 20
161.412312960345
 42
0.1989123673799191
 10
224.3597892813803
 20
161.2708916041075
 10
225.7426319938566
 20
159.8880488916321
 42
0.1989123673798147
 10
225.8840533500941
 20
159.8294702478689
 10
228.5183679251389
 20
159.8294702478689
 42
0.1989123673791358
 10
228.6597892813759
 20
159.8880488916312
 10
230.0426319938554
 20
161.2708916041047
 42
0.1989123673805982
 10
230.1012106376186
 20
161.4123129603423
 10
230.1012106376186
 20
162.1294702478681
 42
0.414213562373095
 10
229.9012106376188
 20
162.3294702478684
 10
229.2041543627732
 20
162.3294702478698
 42
0.1989123673799094
 10
229.0627330065357
 20
162.2708916041066
 10
228.3505221050521
 20
161.5586807026248
 42
-0.700207538208482
 10
228.0098618091968
 20
161.7175332074112
 10
228.3509882257543
 20
165.6166259906145
 42
-0.3888787318536011
 10
229.3471829238463
 20
166.5294702478687
 10
236.9052383513852
 20
166.5294702478687
 42
-0.3888787318530388
 10
237.9014330494772
 20
165.6166259906163
 10
238.2281779465982
 20
161.8819147268569
 42
-0.7002075382052754
 10
237.8875176507439
 20
161.7230622220687
 10
237.28110962493
 20
162.3294702478689
 10
236.5012106376178
 20
162.3294702478693
 42
0.414213562373761
 10
236.3012106376175
 20
162.1294702478691
 10
236.3012106376175
 20
161.4123129603432
 42
0.1989123673799975
 10
236.3597892813803
 20
161.2708916041057
 10
237.7426319938566
 20
159.8880488916316
 42
0.1989123673793184
 10
237.8840533500937
 20
159.8294702478689
 10
240.2183679251396
 20
159.8294702478689
 42
0.1989123673792402
 10
240.3597892813767
 20
159.8880488916316
 10
241.7426319938566
 20
161.2708916041075
 42
0.1989123673800758
 10
241.8012106376194
 20
161.412312960345
 10
241.8012106376194
 20
162.1294702478681
 42
0.414213562373095
 10
241.6012106376195
 20
162.3294702478684
 10
240.9041543627753
 20
162.3294702478698
 42
0.1989123673800139
 10
240.7627330065378
 20
162.2708916041066
 10
240.214903624499
 20
161.7230622220678
 42
-0.7002075382091935
 10
239.8742433286432
 20
161.8819147268546
 10
240.2009882257569
 20
165.6166259906145
 42
-0.3888787318535848
 10
241.197182923849
 20
166.5294702478687
 10
248.8751929164985
 20
166.5294702478687
 42
-0.3888787318529459
 10
249.8713876145901
 20
165.6166259906163
 10
250.2240148905624
 20
161.5860777828812
 42
-0.700207538211461
 10
249.8833545947057
 20
161.4272252780948
 10
249.0396882687031
 20
162.2708916041047
 42
0.1989123673802423
 10
248.8982669124655
 20
162.3294702478684
 10
248.2012106376167
 20
162.3294702478698
 42
0.414213562373761
 10
248.0012106376165
 20
162.12947024787
 10
248.0012106376165
 20
161.4123129603404
 42
0.1989123673801282
 10
248.0597892813792
 20
161.2708916041029
 10
249.4426319938555
 20
159.8880488916312
 42
0.1989123673791878
 10
249.5840533500926
 20
159.8294702478689
 10
251.2012106376185
 20
159.8294702478689
 42
0.4142135623732532
 10
252.201210637619
 20
160.8294702478689
 10
252.2012106376154
 20
206.6652566855005
 42
0.198912367379638
 10
251.908317418802
 20
207.3723634666867
 10
251.7441038564323
 20
207.5365770290564
 42
0.1989123673795953
  0
LWPOLYLINE
  5
22DCF
330
1F
100
AcDbEntity
  8
PCV
 62
     0
100
AcDbPolyline
 90
       24
 70
     1
 43
0.0
 10
235.3012106376166
 20
169.0294702478687
 10
227.8012106376139
 20
169.0294702478687
 42
-0.4142135623729785
 10
227.3012106376139
 20
169.5294702478687
 10
227.3012106376135
 20
170.8294702478698
 42
0.4142135623729618
 10
226.8012106376135
 20
171.3294702478698
 10
226.7012106376131
 20
171.3294702478698
 42
0.414213562373478
 10
226.2012106376126
 20
170.8294702478693
 10
226.2012106376131
 20
169.5294702478691
 42
-0.4142135623732449
 10
225.7012106376131
 20
169.0294702478687
 10
210.9012106376125
 20
169.0294702478687
 42
-0.4142135623732116
 10
210.4012106376125
 20
169.5294702478691
 10
210.4012106376129
 20
170.8294702478689
 42
0.4142135623732449
 10
209.9012106376129
 20
171.3294702478689
 10
209.801210637613
 20
171.3294702478689
 42
0.4142135623729785
 10
209.301210637613
 20
170.8294702478693
 10
209.3012106376125
 20
169.5294702478691
 42
-0.4142135623729452
 10
208.8012106376125
 20
169.0294702478696
 10
204.8012106376121
 20
169.0294702478696
 42
-0.4142135623730617
 10
204.3012106376121
 20
169.5294702478696
 10
204.3012106376084
 20
201.8294702478707
 42
-0.4142135623731283
 10
204.8012106376084
 20
202.3294702478707
 10
235.3012106376139
 20
202.3294702478698
 42
-0.4142135623730617
 10
235.8012106376139
 20
201.8294702478698
 10
235.8012106376166
 20
169.5294702478687
 42
-0.4142135623731117
  0
LWPOLYLINE
  5
22DD0
330
1F
100
AcDbEntity
  8
Stal
 62
     0
100
AcDbPolyline
 90
       20
 70
     1
 43
0.0
 10
233.3012106376084
 20
173.8294702478707
 42
-0.414213562373095
 10
232.8012106376084
 20
173.3294702478707
 10
206.8012106376084
 20
173.3294702478707
 42
-0.414213562373095
 10
206.3012106376084
 20
173.8294702478707
 10
206.3012106376084
 20
186.7262484190033
 10
204.8012106376084
 20
186.7262484190033
 10
204.8012106376084
 20
173.8294702478707
 42
0.414213562373095
 10
206.8012106376084
 20
171.8294702478707
 10
232.8012106376084
 20
171.8294702478707
 42
0.414213562373095
 10
234.8012106376084
 20
173.8294702478707
 10
234.8012106376084
 20
199.8294702478707
 42
0.414213562373095
 10
232.8012106376084
 20
201.8294702478707
 10
206.8012106376084
 20
201.8294702478707
 42
0.414213562373095
 10
204.8012106376084
 20
199.8294702478707
 10
204.8012106376084
 20
186.9262484190031
 10
206.3012106376084
 20
186.9262484190031
 10
206.3012106376084
 20
199.8294702478707
 42
-0.414213562373095
 10
206.8012106376084
 20
200.3294702478707
 10
232.8012106376084
 20
200.3294702478707
 42
-0.414213562373095
 10
233.3012106376084
 20
199.8294702478707
1001
AcDbBlockRepETag
1070
     1
1071
        1
1005
22DD0
  0
LWPOLYLINE
  5
22DD1
330
1F
100
AcDbEntity
  8
Uszczzelka
 62
     0
100
AcDbPolyline
 90
       34
 70
     1
 43
0.0
 10
182.6494468285967
 20
230.032167850789
 10
184.2494468285748
 20
230.4608865586734
 42
-0.4931454260319749
 10
184.5012106375955
 20
230.2677013934154
 10
184.5012106375955
 20
228.5366499248385
 42
0.5773502691911041
 10
184.8012106375962
 20
228.3634448440817
 10
185.601210637595
 20
228.8253250594362
 42
0.2679491924305
 10
185.7012106375944
 20
228.9985301401931
 10
185.7012106375944
 20
232.7209920492888
 42
-0.2024959969389419
 10
185.7617513526232
 20
232.864348625124
 10
188.5507377499769
 20
235.5775136578614
 42
-0.250595525595783
 10
188.7319941655049
 20
235.6297408233677
 10
189.0429932432606
 20
235.5632789131556
 42
-0.3538096259238865
 10
189.2011961127039
 20
235.3676951937887
 10
189.2011969767717
 20
227.5035812495244
 42
-0.11242808857638
 10
189.1814746020366
 20
227.4169788151767
 10
188.1035199547553
 20
225.1730331948348
 42
-0.1539900425281915
 10
188.0211926963496
 20
225.0852632308625
 10
187.0384811905945
 20
224.533243727984
 42
0.1124280607605163
 10
186.9726349175842
 20
224.4736348509214
 10
186.8374139977289
 20
224.2806402799038
 42
0.1539900425425056
 10
186.8012106375984
 20
224.1658767806103
 10
186.8012106376516
 20
223.2330614319827
 42
-0.4142135623898273
 10
186.6012106376518
 20
223.033061431971
 10
185.9012106376193
 20
223.033061431971
 42
-0.4142135623679338
 10
185.701210637619
 20
223.2330614319677
 10
185.701210637599
 20
224.3604103555481
 42
0.2679491924280086
 10
185.6012106375982
 20
224.5336154363022
 10
184.8012106375944
 20
224.9954956516495
 42
0.5773502691876733
 10
184.5012106375955
 20
224.8222905708918
 10
184.5012106375955
 20
223.3794702478745
 42
-0.414213562373095
 10
184.3012106375957
 20
223.1794702478747
 10
182.7012106376176
 20
223.179470247872
 42
-0.414213562373761
 10
182.5012106376174
 20
223.3794702478718
 10
182.5012106376174
 20
229.8389826855314
 42
-0.3394542588634069
  0
CIRCLE
  5
22DD2
330
1F
100
AcDbEntity
  8
Uszczzelka
 62
     0
100
AcDbCircle
 10
187.451203623655
 20
230.8442571202323
 30
0.0
 40
0.5
  0
LWPOLYLINE
  5
22DD3
330
1F
100
AcDbEntity
  8
Uszczzelka
 62
     0
100
AcDbPolyline
 90
       34
 70
     1
 43
0.0
 10
207.0423228849366
 20
222.101889658271
 42
0.2472073131733177
 10
206.9134288222197
 20
221.9672702547273
 10
204.5122164631082
 20
213.5845448289074
 42
0.4984957406024692
 10
204.7044839604217
 20
213.3294702478671
 10
206.2012106376222
 20
213.3294702478661
 42
-0.4142135623723042
 10
206.401210637622
 20
213.1294702478672
 10
206.4012106376284
 20
210.7985301401905
 42
-0.2679491924313568
 10
206.3012106376289
 20
210.6253250594337
 10
205.5012106376283
 20
210.1634448440801
 42
-0.5773502691902346
 10
205.2012106376281
 20
210.3366499248369
 10
205.2012106376281
 20
211.6294702478668
 42
0.414213562373095
 10
205.0012106376283
 20
211.8294702478671
 10
204.8127469952922
 20
211.8294702478671
 42
0.1316524975873054
 10
204.7127469952923
 20
211.802675328624
 10
203.301210637623
 20
210.9877244325526
 42
0.2679491924308999
 10
203.2012106376235
 20
210.8145193517954
 10
203.2012106376281
 20
205.0294702478696
 42
0.4142135623728869
 10
203.4012106376279
 20
204.8294702478698
 10
205.0012106376287
 20
204.8294702478698
 42
0.4142135623735945
 10
205.2012106376285
 20
205.0294702478705
 10
205.2012106376258
 20
206.6222905709029
 42
-0.5773502691917909
 10
205.5012106376269
 20
206.7954956516597
 10
206.3012106376285
 20
206.3336154363015
 42
-0.2679491924306007
 10
206.4012106376275
 20
206.1604103555447
 10
206.4012106376243
 20
205.0294702478705
 42
0.4142135623739275
 10
206.6012106376245
 20
204.8294702478698
 10
208.0012106376283
 20
204.8294702478698
 42
0.414213562373095
 10
208.2012106376281
 20
205.0294702478701
 10
208.2012106376281
 20
212.6767110167544
 42
-0.0494350502753965
 10
208.205101714885
 20
212.7159702885329
 10
209.8210626426761
 20
220.7880598201
 42
0.124889612234375
 10
209.8160561002144
 20
220.8863096017158
 10
209.2769633682377
 20
222.6327244836476
 42
0.4209717868596446
 10
209.0224875533593
 20
222.7634279583941
  0
LWPOLYLINE
  5
22DD4
330
1F
100
AcDbEntity
  8
Uszczzelka
 62
     0
100
AcDbPolyline
 90
        2
 70
     1
 43
0.0
 10
207.8626142351507
 20
217.3533137194063
 42
1.0
 10
206.8626142351507
 20
217.3533137194063
 42
1.0
  0
LINE
  5
22DD5
330
1F
100
AcDbEntity
  8
PCV
 62
     0
100
AcDbLine
 10
248.9012106376152
 20
193.8294702478689
 30
0.0
 11
243.9012106376179
 21
193.8294702478689
 31
0.0
1001
AcDbBlockRepETag
1070
     1
1071
     1489
1005
0
  0
ARC
  5
22DD6
330
1F
100
AcDbEntity
  8
PCV
 62
     0
100
AcDbCircle
 10
243.9012106376179
 20
193.3294702478689
 30
0.0
 40
0.5
100
AcDbArc
 50
90.0
 51
180.0
1001
AcDbBlockRepETag
1070
     1
1071
     1489
1005
0
  0
LINE
  5
22DD7
330
1F
100
AcDbEntity
  8
PCV
 62
     0
100
AcDbLine
 10
243.4012106376179
 20
193.3294702478689
 30
0.0
 11
243.4012106376152
 21
176.6294702478691
 31
0.0
1001
AcDbBlockRepETag
1070
     1
1071
     1489
1005
0
  0
LINE
  5
22DD8
330
1F
100
AcDbEntity
  8
PCV
 62
     0
100
AcDbLine
 10
243.9012106376152
 20
176.1294702478691
 30
0.0
 11
248.9012106376152
 21
176.1294702478691
 31
0.0
1001
AcDbBlockRepETag
1070
     1
1071
     1489
1005
0
  0
LINE
  5
22DD9
330
1F
100
AcDbEntity
  8
PCV
 62
     0
100
AcDbLine
 10
249.4012106376152
 20
176.6294702478691
 30
0.0
 11
249.4012106376152
 21
193.3294702478689
 31
0.0
1001
AcDbBlockRepETag
1070
     1
1071
     1489
1005
0
  0
ARC
  5
22DDA
330
1F
100
AcDbEntity
  8
PCV
 62
     0
100
AcDbCircle
 10
248.9012106376152
 20
193.3294702478689
 30
0.0
 40
0.5
100
AcDbArc
 50
0.0
 51
90.0
  0
ARC
  5
22DDB
330
1F
100
AcDbEntity
  8
PCV
 62
     0
100
AcDbCircle
 10
248.9012106376152
 20
176.6294702478691
 30
0.0
 40
0.5
100
AcDbArc
 50
270.0
 51
0.0
  0
ARC
  5
22DDC
330
1F
100
AcDbEntity
  8
PCV
 62
     0
100
AcDbCircle
 10
243.9012106376152
 20
176.6294702478691
 30
0.0
 40
0.5
100
AcDbArc
 50
180.0
 51
270.0
  0
HATCH
  5
22DDD
102
{ACAD_XDICTIONARY
360
22DDE
102
}
330
1F
100
AcDbEntity
  8
Taśma rozprężna
 62
     0
100
AcDbHatch
 10
0.0
 20
0.0
 30
0.0
210
0.0
220
0.0
230
1.0
  2
GRAVEL
 70
     0
 71
     1
 91
        1
 92
        7
 72
     0
 73
     1
 93
        4
 10
196.8512106376186
 20
161.5294702478691
 10
206.8512106376186
 20
161.5294702478691
 10
206.8512106376186
 20
166.5294702478691
 10
196.8512106376186
 20
166.5294702478691
 97
        1
330
22DE1
 75
     0
 76
     1
 52
0.0
 41
0.07
 77
     0
 78
    41
 53
228.0127875
 43
98.49804761336264
 44
-2083.453248097772
 45
-14.22400000111707
 46
-16.00199999900725
 79
     2
 49
0.239205008
 49
-23.6813385476955
 53
184.9697409999995
 43
98.33802761336239
 44
-2083.631048097772
 45
21.33599999155836
 46
1.778000101288547
 79
     2
 49
0.4104833039999996
 49
-40.63783422546674
 53
132.5104471
 43
97.92908761336258
 44
-2083.666608097772
 45
17.78000000750926
 46
-19.55799999317217
 79
     2
 49
0.289437064
 49
-28.65430595587
 53
267.273689
 43
97.23566761336252
 44
-2084.111108097772
 45
1.778000003723776
 46
35.55999999981321
 79
     2
 49
0.373803164
 49
-37.0065061980166
 53
292.83365418
 43
97.2178876133624
 44
-2084.484488097772
 45
-8.890000000744388
 46
21.33599999968883
 79
     2
 49
0.36654359
 49
-36.2878654217408
 53
357.273689
 43
97.36012761336252
 44
-2084.822308097772
 45
-35.55999999981321
 46
1.778000003723779
 79
     2
 49
0.373803164
 49
-37.0065061980166
 53
37.69424047
 43
97.73350761336252
 44
-2084.840088097772
 45
-23.11399999897513
 46
-17.78000000133029
 79
     2
 49
0.4943355620000001
 49
-48.9391807199729
 53
72.25532837
 43
98.12466761336265
 44
-2084.537828097772
 45
12.4460000033455
 46
39.1159999989352
 79
     2
 49
0.4667036640000001
 49
-46.20367962133351
 53
121.42956562
 43
98.26690761336278
 44
-2084.093328097772
 45
-14.22400000201817
 46
23.11399999875822
 79
     2
 49
0.3750691
 49
-37.1318819890984
 53
175.2363583
 43
98.07132761336271
 44
-2083.773288097772
 45
19.55799999971967
 46
-1.778000003072471
 79
     2
 49
0.4281992960000001
 49
-20.981755865
 53
222.3974377999998
 43
97.64460761336278
 44
-2083.737728097772
 45
-21.33599999931727
 46
-19.55800000074478
 79
     2
 49
0.5537545439999983
 49
-54.8217407585238
 53
138.81407483
 43
98.99588761336264
 44
-2084.128888097772
 45
-12.44599999925346
 46
10.66800000086743
 79
     2
 49
0.1890031780000012
 49
-18.71139607704088
 53
171.4692344
 43
98.85364761336251
 44
-2084.004428097772
 45
23.11400000062276
 46
-3.55599999596614
 79
     2
 49
0.3595773859999988
 49
-35.59824729792785
 53
225.0
 43
98.49804761336264
 44
-2083.951088097772
 45
-0.0000000000000002
 46
-1.778000000000168
 79
     2
 49
0.2514465380000001
 49
-2.263025175899601
 53
203.1985905099998
 43
98.37358761336264
 44
-2083.737728097772
 45
8.890000000242264
 46
3.555999999376534
 79
     2
 49
0.135408924
 49
-13.4054356582258
 53
291.80140949
 43
98.24912761336265
 44
-2083.791068097772
 45
-1.778000000372042
 46
5.333999999876013
 79
     2
 49
0.191495934
 49
-9.383327093
 53
30.96375653
 43
98.32024761336271
 44
-2083.968868097772
 45
5.334000000130469
 46
3.555999999804787
 79
     2
 49
0.3110237619999988
 49
-10.05640870703696
 53
161.56505118
 43
98.58694761336238
 44
-2083.808848097773
 45
3.556000000092808
 46
-1.777999999813628
 79
     2
 49
0.2249009979999994
 49
-5.39762868177958
 53
16.389540334
 43
97.2178876133624
 44
-2083.791068097772
 45
17.7800000000001
 46
5.334000000000168
 79
     2
 49
0.3150616000000001
 49
-31.1911786707773
 53
70.34617594
 43
97.52014761336278
 44
-2083.702168097772
 45
-7.112000000650522
 46
-19.55799999976929
 79
     2
 49
0.264319258
 49
-26.16755097474
 53
293.19859051
 43
98.58694761336238
 44
-2083.453248097772
 45
-3.555999999379284
 46
8.890000000248701
 79
     2
 49
0.27081607
 49
-13.2700285122258
 53
343.61045967
 43
98.69362761336271
 44
-2083.702168097772
 45
-17.7800000003726
 46
5.333999998756018
 79
     2
 49
0.3150616000000001
 49
-31.191178670778
 53
339.44395478
 43
97.2178876133624
 44
-2084.893428097772
 45
-8.889999999999905
 46
3.556000000000147
 79
     2
 49
0.3038246399999988
 49
-14.88741401917416
 53
294.7751406
 43
97.50236761336265
 44
-2085.000108097772
 45
-8.890000010581835
 46
19.55799999518909
 79
     2
 49
0.2545704839999988
 49
-25.20251536650393
 53
66.80140949
 43
98.60472761336251
 44
-2085.231248097772
 45
3.55599999944161
 46
8.890000000223514
 79
     2
 49
0.2708160699999988
 49
-13.27002851222576
 53
17.35402464
 43
98.71140761336238
 44
-2084.982328097772
 45
-23.11399999954012
 46
-7.112000001492725
 79
     2
 49
0.298047918
 49
-29.50666318614
 53
69.44395478
 43
97.73350761336252
 44
-2085.231248097772
 45
-3.556000000061922
 46
-8.889999999975242
 79
     2
 49
0.1519123199999994
 49
-15.03932633917416
 53
101.309932474
 43
98.49804761336264
 44
-2085.231248097772
 45
-1.77800000000028
 46
7.112000000000259
 79
     2
 49
0.0906602199999997
 49
-8.97539647516816
 53
165.963756532
 43
98.48026761336251
 44
-2085.142348097772
 45
5.333999999999659
 46
-1.77799999999991
 79
     2
 49
0.36654359
 49
-6.9643382123483
 53
186.0090059599995
 43
98.12466761336265
 44
-2085.053448097773
 45
17.77999999990576
 46
1.778000000930556
 79
     2
 49
0.3396869000000002
 49
-33.62895540433593
 53
303.69006753
 43
98.32024761336271
 44
-2084.128888097772
 45
-1.778000000247078
 46
3.555999999876591
 79
     2
 49
0.256426716
 49
-6.154243451776001
 53
353.15722659
 43
98.46248761336238
 44
-2084.342248097772
 45
30.22600000018598
 46
-3.555999998417576
 79
     2
 49
0.447689732
 49
-44.32120634552171
 53
60.94539590000001
 43
98.9069876133629
 44
-2084.395588097772
 45
-7.112000000195781
 46
-12.44599999988818
 79
     2
 49
0.183055768
 49
-18.122574622677
 53
180.0
 43
98.99588761336264
 44
-2084.235568097772
 45
-1.778000000000001
 46
-1.777999999999999
 79
     2
 49
0.10668
 49
-1.67132
 53
120.25643716
 43
98.08910761336239
 44
-2085.000108097772
 45
7.111999999130016
 46
-12.44600000049686
 79
     2
 49
0.247006872
 49
-24.45375854124
 53
48.0127875
 43
97.96464761336239
 44
-2084.786748097772
 45
14.22400000117274
 46
16.00199999895715
 79
     2
 49
0.4784100159999988
 49
-23.44213353969543
 53
0.0
 43
98.2846876133629
 44
-2084.431148097773
 45
1.778
 46
1.778
 79
     2
 49
0.46228
 49
-1.31572
 53
325.3048465
 43
98.74696761336264
 44
-2084.431148097773
 45
17.78000000673507
 46
-12.4459999903782
 79
     2
 49
0.2811266920000012
 49
-27.83152170689816
 53
254.0546041
 43
98.97810761336251
 44
-2084.591168097772
 45
-1.777999999875783
 46
-7.112000000031324
 79
     2
 49
0.258880356
 49
-12.6851550271404
 53
207.64597536
 43
98.9069876133629
 44
-2084.840088097772
 45
-33.78200000124134
 46
-17.77999999764153
 79
     2
 49
0.4215015699999988
 49
-41.72872509605645
 53
175.42607874
 43
98.5336076133629
 44
-2085.035668097772
 45
-23.11399999999918
 46
1.777999999999635
 79
     2
 49
0.445920622
 49
-44.146092519368
 47
0.0
 98
        1
 10
202.0884593009371
 20
162.6055888552078
1001
ACAD
1010
0.0
1020
0.0
1030
0.0
1001
AcadAnnotative
1000
AnnotativeData
1002
{
1070
     1
1070
     0
1002
}
  0
LWPOLYLINE
  5
22DE1
102
{ACAD_REACTORS
330
22DDD
102
}
330
1F
100
AcDbEntity
  8
Taśma rozprężna
 62
     0
100
AcDbPolyline
 90
        4
 70
     1
 43
0.0
 10
196.8512106376186
 20
161.5294702478691
 10
206.8512106376186
 20
161.5294702478691
 10
206.8512106376186
 20
166.5294702478691
 10
196.8512106376186
 20
166.5294702478691
  0
HATCH
  5
22DE2
102
{ACAD_XDICTIONARY
360
22DE3
102
}
330
1F
100
AcDbEntity
  8
Klejo-uszczelniacz
 62
     0
100
AcDbHatch
 10
0.0
 20
0.0
 30
0.0
210
0.0
220
0.0
230
1.0
  2
SOLID
 70
     1
 71
     0
 91
        1
 92
        7
 72
     0
 73
     1
 93
        3
 10
215.9512106376199
 20
164.0294702478701
 10
218.4512106376199
 20
166.5294702478701
 10
213.4512106376199
 20
166.5294702478701
 97
        0
 75
     0
 76
     1
 47
0.0
 98
        1
 10
216.4695386892302
 20
165.8048203570502
450
        0
451
        0
460
0.0
461
0.0
452
        0
462
0.0
453
        2
463
0.0
 63
     5
421
      255
463
1.0
 63
   254
421
 13750783
470
LINEAR
1001
ACAD
1010
0.0
1020
0.0
1030
0.0
1001
AcadAnnotative
1000
AnnotativeData
1002
{
1070
     1
1070
     0
1002
}
  0
LWPOLYLINE
  5
22DE6
102
{ACAD_REACTORS
330
22DE2
102
}
330
1F
100
AcDbEntity
  8
Klejo-uszczelniacz
 62
     0
100
AcDbPolyline
 90
        3
 70
     1
 43
0.0
 10
215.9512106376199
 20
164.0294702478701
 10
218.4512106376199
 20
166.5294702478701
 10
213.4512106376199
 20
166.5294702478701
  0
LWPOLYLINE
  5
22DE7
330
1F
100
AcDbEntity
  8
Listwa zaczepowa
 62
     0
100
AcDbPolyline
 90
       40
 70
     1
 43
0.0
 10
189.4512106376183
 20
89.82947024786932
 10
182.9512106376183
 20
89.82947024786932
 42
-0.414213562373095
 10
182.4512106376183
 20
90.32947024786932
 10
182.4512106376183
 20
99.02947024786937
 42
-0.414213562373095
 10
182.9512106376183
 20
99.52947024786937
 10
190.4512106376183
 20
99.52947024786937
 42
0.414213562373095
 10
190.9512106376183
 20
100.0294702478694
 10
190.9512106376183
 20
111.3294702478693
 42
-0.414213562373095
 10
191.4512106376183
 20
111.8294702478693
 10
195.4512106376183
 20
111.8294702478693
 42
-0.414213562373095
 10
195.9512106376183
 20
111.3294702478693
 10
195.9512106376183
 20
100.0294702478694
 42
0.414213562373095
 10
196.4512106376183
 20
99.52947024786937
 10
218.4512106376183
 20
99.52947024786937
 42
0.414213562373095
 10
218.9512106376183
 20
100.0294702478694
 10
218.9512106376183
 20
111.3294702478693
 42
-0.414213562373095
 10
219.4512106376183
 20
111.8294702478693
 10
223.4512106376183
 20
111.8294702478693
 42
-0.414213562373095
 10
223.9512106376183
 20
111.3294702478693
 10
223.9512106376183
 20
100.0294702478694
 42
0.414213562373095
 10
224.4512106376183
 20
99.52947024786937
 10
231.9512106376183
 20
99.52947024786937
 42
-0.414213562373095
 10
232.4512106376183
 20
99.02947024786937
 10
232.4512106376183
 20
90.32947024786932
 42
-0.414213562373095
 10
231.9512106376183
 20
89.82947024786932
 10
225.4512106376183
 20
89.82947024786932
 42
-0.4142135623730971
 10
224.9512106376183
 20
90.32947024786932
 10
224.9512106376183
 20
91.22947024786941
 42
-0.4142135623730929
 10
225.4512106376183
 20
91.72947024786941
 10
227.9512106376183
 20
91.72947024786941
 42
0.414213562373095
 10
228.4512106376183
 20
92.22947024786941
 10
228.4512106376183
 20
94.22947024786941
 42
0.414213562373095
 10
227.9512106376183
 20
94.72947024786941
 10
186.9512106376183
 20
94.72947024786941
 42
0.414213562373095
 10
186.4512106376183
 20
94.22947024786941
 10
186.4512106376183
 20
92.22947024786941
 42
0.414213562373095
 10
186.9512106376183
 20
91.72947024786941
 10
189.4512106376183
 20
91.72947024786941
 42
-0.4142135623730929
 10
189.9512106376183
 20
91.22947024786941
 10
189.9512106376183
 20
90.32947024786932
 42
-0.4142135623730971
  0
HATCH
  5
22DE8
102
{ACAD_XDICTIONARY
360
22DE9
102
}
330
1F
100
AcDbEntity
  8
Klinaryt
 62
     0
100
AcDbHatch
 10
0.0
 20
0.0
 30
0.0
210
0.0
220
0.0
230
1.0
  2
OCTAGON
 70
     0
 71
     1
 91
        1
 92
        1
 93
       43
 72
     1
 10
180.6012106375958
 20
159.8294702478693
 11
180.6012106375958
 21
124.8294702478693
 72
     1
 10
180.6012106375958
 20
124.8294702478693
 11
173.1012106375958
 21
117.3294702478693
 72
     1
 10
173.1012106375958
 20
117.3294702478693
 11
173.1012106375958
 21
89.82947024786932
 72
     1
 10
173.1012106375958
 20
89.82947024786932
 11
182.4512106376183
 21
89.82947024786932
 72
     1
 10
182.4512106376183
 20
89.82947024786932
 11
182.4512106376183
 21
99.02947024786937
 72
     2
 10
182.9512106376183
 20
99.02947024786937
 40
0.5
 50
180.0
 51
270.0
 73
     0
 72
     1
 10
182.9512106376183
 20
99.52947024786937
 11
190.4512106376183
 21
99.52947024786937
 72
     2
 10
190.4512106376183
 20
100.0294702478694
 40
0.5
 50
270.0
 51
0.0
 73
     1
 72
     1
 10
190.9512106376183
 20
100.0294702478694
 11
190.9512106376183
 21
111.3294702478693
 72
     2
 10
191.4512106376183
 20
111.3294702478693
 40
0.5
 50
180.0
 51
270.0
 73
     0
 72
     1
 10
191.4512106376183
 20
111.8294702478693
 11
195.4512106376183
 21
111.8294702478693
 72
     2
 10
195.4512106376183
 20
111.3294702478693
 40
0.5
 50
270.0
 51
0.0
 73
     0
 72
     1
 10
195.9512106376183
 20
111.3294702478693
 11
195.9512106376183
 21
100.0294702478694
 72
     2
 10
196.4512106376183
 20
100.0294702478694
 40
0.5
 50
180.0
 51
270.0
 73
     1
 72
     1
 10
196.4512106376183
 20
99.52947024786937
 11
218.4512106376183
 21
99.52947024786937
 72
     2
 10
218.4512106376183
 20
100.0294702478694
 40
0.5
 50
270.0
 51
0.0
 73
     1
 72
     1
 10
218.9512106376183
 20
100.0294702478694
 11
218.9512106376183
 21
111.3294702478693
 72
     2
 10
219.4512106376183
 20
111.3294702478693
 40
0.5
 50
180.0
 51
270.0
 73
     0
 72
     1
 10
219.4512106376183
 20
111.8294702478693
 11
223.4512106376183
 21
111.8294702478693
 72
     2
 10
223.4512106376183
 20
111.3294702478693
 40
0.5
 50
270.0
 51
0.0
 73
     0
 72
     1
 10
223.9512106376183
 20
111.3294702478693
 11
223.9512106376183
 21
100.0294702478694
 72
     2
 10
224.4512106376183
 20
100.0294702478694
 40
0.5
 50
180.0
 51
270.0
 73
     1
 72
     1
 10
224.4512106376183
 20
99.52947024786937
 11
231.9512106376183
 21
99.52947024786937
 72
     2
 10
231.9512106376183
 20
99.02947024786937
 40
0.5
 50
270.0
 51
0.0
 73
     0
 72
     1
 10
232.4512106376183
 20
99.02947024786937
 11
232.4512106376183
 21
89.82947024786932
 72
     1
 10
232.4512106376183
 20
89.82947024786932
 11
241.8012106376183
 21
89.82947024786932
 72
     1
 10
241.8012106376183
 20
89.82947024786932
 11
241.8012106376183
 21
159.8294702478693
 72
     1
 10
241.8012106376183
 20
159.8294702478693
 11
224.3012106376092
 21
159.8294702478702
 72
     1
 10
224.3012106376092
 20
159.8294702478702
 11
224.3012106376092
 21
162.3294702478702
 72
     1
 10
224.3012106376092
 20
162.3294702478702
 11
224.8012106376092
 21
162.3294702478702
 72
     1
 10
224.8012106376092
 20
162.3294702478702
 11
224.3012106376092
 21
166.5294702478701
 72
     1
 10
224.3012106376092
 20
166.5294702478701
 11
218.4512106376071
 21
166.5294702478701
 72
     1
 10
218.4512106376071
 20
166.5294702478701
 11
215.9512106376071
 21
164.0294702478701
 72
     1
 10
215.9512106376071
 20
164.0294702478701
 11
213.4512106376071
 21
166.5294702478701
 72
     1
 10
213.4512106376071
 20
166.5294702478701
 11
207.5512106376056
 21
166.5294702478701
 72
     1
 10
207.5512106376056
 20
166.5294702478701
 11
207.5512106376079
 21
161.5294702478691
 72
     1
 10
207.5512106376079
 20
161.5294702478691
 11
196.1512106376082
 21
161.5294702478691
 72
     1
 10
196.1512106376082
 20
161.5294702478691
 11
196.151210637606
 21
166.5294702478701
 72
     1
 10
196.151210637606
 20
166.5294702478701
 11
186.1012106376067
 21
166.5294702478701
 72
     1
 10
186.1012106376067
 20
166.5294702478701
 11
185.6012106376067
 21
162.3294702478711
 72
     1
 10
185.6012106376067
 20
162.3294702478711
 11
186.1012106376067
 21
162.3294702478711
 72
     1
 10
186.1012106376067
 20
162.3294702478711
 11
186.1012106376158
 21
159.8294702478693
 72
     1
 10
186.1012106376158
 20
159.8294702478693
 11
180.6012106375958
 21
159.8294702478693
 97
        1
330
22DEC
 75
     0
 76
     1
 52
0.0
 41
0.1
 77
     0
 78
     6
 53
315.0
 43
-381.5432357100728
 44
-750.6118487461613
 45
2.54000081428461
 46
-0.0000000000000007
 79
     2
 49
1.0417099
 49
-2.55039368
 53
0.0
 43
-380.8066357100728
 44
-751.3484487461612
 45
2.54
 46
2.54
 79
     2
 49
1.0668
 49
-1.4732
 53
45.0
 43
-379.7398357100728
 44
-751.3484487461612
 45
0.0000000000000002
 46
2.54000081428461
 79
     2
 49
1.0417099
 49
-2.55039368
 53
135.0
 43
-379.0032357100728
 44
-749.5450487461612
 45
-2.54000081428461
 46
0.0000000000000002
 79
     2
 49
1.0417099
 49
-2.55039368
 53
225.0
 43
-380.8066357100728
 44
-748.8084487461613
 45
-0.0000000000000005
 46
-2.54000081428461
 79
     2
 49
1.0417099
 49
-2.550393680000001
 53
270.0
 43
-381.5432357100728
 44
-749.5450487461612
 45
2.54
 46
-2.54
 79
     2
 49
1.0668
 49
-1.4732
 98
        1
 10
-381.5432357100728
 20
-751.3484487461612
1001
ACAD
1010
0.0
1020
0.0
1030
0.0
1001
AcadAnnotative
1000
AnnotativeData
1002
{
1070
     1
1070
     0
1002
}
  0
LWPOLYLINE
  5
22DEC
102
{ACAD_REACTORS
330
22DE8
330
22DEF
102
}
330
1F
100
AcDbEntity
  8
Klinaryt
 62
     0
100
AcDbPolyline
 90
       43
 70
     1
 43
0.0
 10
180.6012106375958
 20
159.8294702478693
 10
180.6012106375958
 20
124.8294702478693
 10
173.1012106375958
 20
117.3294702478693
 10
173.1012106375958
 20
89.82947024786932
 10
182.4512106376183
 20
89.82947024786932
 10
182.4512106376183
 20
99.02947024786937
 42
-0.414213562373095
 10
182.9512106376183
 20
99.52947024786937
 10
190.4512106376183
 20
99.52947024786937
 42
0.414213562373095
 10
190.9512106376183
 20
100.0294702478694
 10
190.9512106376183
 20
111.3294702478693
 42
-0.414213562373095
 10
191.4512106376183
 20
111.8294702478693
 10
195.4512106376183
 20
111.8294702478693
 42
-0.414213562373095
 10
195.9512106376183
 20
111.3294702478693
 10
195.9512106376183
 20
100.0294702478694
 42
0.414213562373095
 10
196.4512106376183
 20
99.52947024786937
 10
218.4512106376183
 20
99.52947024786937
 42
0.414213562373095
 10
218.9512106376183
 20
100.0294702478694
 10
218.9512106376183
 20
111.3294702478693
 42
-0.414213562373095
 10
219.4512106376183
 20
111.8294702478693
 10
223.4512106376183
 20
111.8294702478693
 42
-0.414213562373095
 10
223.9512106376183
 20
111.3294702478693
 10
223.9512106376183
 20
100.0294702478694
 42
0.414213562373095
 10
224.4512106376183
 20
99.52947024786937
 10
231.9512106376183
 20
99.52947024786937
 42
-0.414213562373095
 10
232.4512106376183
 20
99.02947024786937
 10
232.4512106376183
 20
89.82947024786932
 10
241.8012106376183
 20
89.82947024786932
 10
241.8012106376183
 20
159.8294702478693
 10
224.3012106376092
 20
159.8294702478702
 10
224.3012106376092
 20
162.3294702478702
 10
224.8012106376092
 20
162.3294702478702
 10
224.3012106376092
 20
166.5294702478701
 10
218.4512106376071
 20
166.5294702478701
 10
215.9512106376071
 20
164.0294702478701
 10
213.4512106376071
 20
166.5294702478701
 10
207.5512106376056
 20
166.5294702478701
 10
207.5512106376079
 20
161.5294702478691
 10
196.1512106376082
 20
161.5294702478691
 10
196.151210637606
 20
166.5294702478701
 10
186.1012106376067
 20
166.5294702478701
 10
185.6012106376067
 20
162.3294702478711
 10
186.1012106376067
 20
162.3294702478711
 10
186.1012106376158
 20
159.8294702478693
  0
DIMENSION
  5
22DED
102
{ACAD_REACTORS
330
22DEF
102
}
102
{ACAD_XDICTIONARY
360
22DEE
102
}
330
1F
100
AcDbEntity
  8
Wymiar
 62
     0
100
AcDbDimension
280
     0
  2
*D29
 10
241.8012106376183
 20
79.82947024786932
 30
0.0
 11
207.4512106376071
 21
83.83424514555008
 31
0.0
 70
    32
 71
     5
 42
68.70000000002256
 73
     0
 74
     0
 75
     0
 51
360.0
  3
ISO-25
100
AcDbAlignedDimension
 13
173.1012106375958
 23
89.82947024786932
 33
0.0
 14
241.8012106376183
 24
89.82947024786932
 34
0.0
100
AcDbRotatedDimension
  0
DIMENSION
  5
22DF0
330
1F
100
AcDbEntity
  8
Wymiar
 62
     0
100
AcDbDimension
280
     0
  2
*D30
 10
160.2012106376162
 20
124.8294702478693
 30
0.0
 11
155.1018472906403
 21
107.3294702478693
 31
0.0
 70
    32
  1
\A1;{\H0.7x;\S1/2;} Hw
 71
     5
 42
35.0
 73
     0
 74
     0
 75
     0
 51
360.0
  3
ISO-25
100
AcDbAlignedDimension
 13
173.1012106375958
 23
89.82947024786932
 33
0.0
 14
173.1012106375958
 24
124.8294702478693
 34
0.0
 50
90.0
100
AcDbRotatedDimension
1001
ACAD
1000
DSTYLE
1002
{
1070
   340
1005
11
1002
}
  0
DIMENSION
  5
22DF1
330
1F
100
AcDbEntity
  8
Wymiar
 62
     0
100
AcDbDimension
280
     0
  2
*D31
 10
160.2012106376162
 20
159.8294702478693
 30
0.0
 11
155.1018472906403
 21
142.3294702478693
 31
0.0
 70
    32
  1
\A1;{\H0.7x;\S1/2;} Hw
 71
     5
 42
35.0
 73
     0
 74
     0
 75
     0
 51
360.0
  3
ISO-25
100
AcDbAlignedDimension
 13
173.1012106375958
 23
124.8294702478693
 33
0.0
 14
180.6012106375958
 24
159.8294702478693
 34
0.0
 50
90.0
100
AcDbRotatedDimension
1001
ACAD
1000
DSTYLE
1002
{
1070
   340
1005
11
1002
}
  0
LINE
  5
22DF2
330
1F
100
AcDbEntity
  8
Przerywana
 62
     0
100
AcDbLine
 10
241.8012106376183
 20
159.8294702478693
 30
0.0
 11
251.8012106376183
 21
159.8294702478693
 31
0.0
  0
DIMENSION
  5
22DF3
330
1F
100
AcDbEntity
  8
Wymiar
 62
     0
100
AcDbDimension
280
     0
  2
*D32
 10
251.8012106376183
 20
159.8294702478693
 30
0.0
 11
248.2483456990099
 21
124.8294702478693
 31
0.0
 70
    32
  1
H widoczne = <>
 71
     5
 42
70.0
 73
     0
 74
     0
 75
     0
 51
360.0
  3
ISO-25
100
AcDbAlignedDimension
 13
241.8012106376183
 23
89.82947024786932
 33
0.0
 14
251.8012106376183
 24
159.8294702478693
 34
0.0
 50
90.0
100
AcDbRotatedDimension
1001
ACAD
1000
DSTYLE
1002
{
1070
   340
1005
11
1002
}
  0
LWPOLYLINE
  5
22EBB
330
1F
100
AcDbEntity
  8
Listwa zaczepowa
 62
     0
100
AcDbPolyline
 90
       71
 70
     1
 43
0.0
 10
106.9670447231187
 20
6.705754566913484
 42
0.2723168822250248
 10
106.324411043671
 20
6.705754566913484
 10
105.7306348867663
 20
6.705754566913484
 42
0.2723168822250248
 10
105.0880012073186
 20
6.705754566913484
 10
104.4942250504136
 20
6.705754566913484
 42
0.2723168822250026
 10
103.8515913709662
 20
6.705754566913484
 10
103.2578152140614
 20
6.705754566913484
 42
0.2723168822250607
 10
102.6151815346137
 20
6.705754566913484
 10
102.0214053777091
 20
6.705754566913484
 42
0.2723168822250248
 10
101.3787716982614
 20
6.705754566913484
 10
100.7849955413565
 20
6.705754566913484
 42
0.2723168822250248
 10
100.1423618619088
 20
6.705754566913484
 10
99.5485857050041
 20
6.705754566913484
 42
0.2723168822250248
 10
98.90595202555637
 20
6.705754566913484
 10
98.40717246588004
 20
6.705754566913484
 42
-0.4142135623731616
 10
98.23217246588008
 20
6.880754566913552
 10
98.23215340996178
 20
7.513577114625846
 10
98.58214814026071
 20
7.513577114625846
 10
98.23213233020529
 20
8.213608734736695
 10
98.23210475872322
 20
9.129222210050571
 10
98.58209948902216
 20
9.129222210050571
 10
98.23208367896684
 20
9.82925383016142
 10
98.23207516340297
 20
10.112044757763
 42
0.4044793638756882
 10
98.05717246588013
 20
10.28120982852558
 10
97.89184061654437
 20
10.28120982852558
 42
0.414213562373095
 10
97.7168406165443
 20
10.10620982852562
 10
97.7168406165443
 20
6.880754566913552
 42
-0.414213562373095
 10
97.54184061654435
 20
6.705754566913484
 10
95.56064270923692
 20
6.705754566913484
 42
0.3477027803384637
 10
95.2200430069001
 20
6.436326539509096
 10
94.92447938751418
 20
5.186898512105032
 42
0.4840067329220665
 10
95.60567879218804
 20
4.325754566913034
 10
96.4930350279961
 20
4.325754566913034
 42
0.4875730548766338
 10
96.83268213897516
 20
4.760252140864409
 10
96.79345889051872
 20
4.917914217993044
 42
0.5284107086676006
 10
96.35962106810958
 20
5.078607775570859
 10
96.23213234628857
 20
4.988072306451627
 42
-0.1556137142151864
 10
96.13080726277254
 20
4.955754566913484
 10
95.95964314241981
 20
4.955754566913484
 42
-0.4840067329219216
 10
95.61904344008276
 20
5.386326539509142
 10
95.75026610999085
 20
5.941040553211579
 42
-0.3477027803384214
 10
95.9205659611592
 20
6.075754566913034
 10
109.9524307875159
 20
6.075754566913034
 42
-0.3477027803387637
 10
110.1227306386842
 20
5.94104055321101
 10
110.2539533085923
 20
5.386326539509142
 42
-0.4840067329220452
 10
109.9133536062555
 20
4.955754566913484
 10
109.7421894859026
 20
4.955754566913484
 42
-0.1556137142152928
 10
109.6408644023864
 20
4.988072306451627
 10
109.5133756805655
 20
5.078607775570859
 42
0.5284107086677252
 10
109.0795378581564
 20
4.917914217993044
 10
109.0403146096999
 20
4.760252140864182
 42
0.4875730548766228
 10
109.379961720679
 20
4.325754566913034
 10
110.2673179564872
 20
4.325754566913034
 42
0.4840067329219878
 10
110.9485173611611
 20
5.186898512105032
 10
110.6529537417752
 20
6.436326539509096
 42
0.3477027803384653
 10
110.3123540394382
 20
6.705754566913484
 10
108.3311561321305
 20
6.705754566913484
 42
-0.4142135623731616
 10
108.1561561321306
 20
6.880754566913552
 10
108.1561561321306
 20
10.10620982852562
 42
0.4142135623731616
 10
107.9811561321306
 20
10.28120982852558
 10
107.815824282795
 20
10.28120982852558
 42
0.4044793638751874
 10
107.640921585272
 20
10.112044757763
 10
107.6409130697082
 20
9.829253830161761
 10
107.2908972596527
 20
9.129222210050571
 10
107.6408919899518
 20
9.129222210050571
 10
107.6408644184697
 20
8.213608734736695
 10
107.2908486084143
 20
7.513577114625846
 10
107.6408433387132
 20
7.513577114625846
 10
107.640824282795
 20
6.880754566913552
 42
-0.4142135623731616
 10
107.4658242827948
 20
6.705754566913484
 10
107.2038355267442
 20
6.705754566913484
  0
LWPOLYLINE
  5
22EBC
330
1F
100
AcDbEntity
  8
Listwa zaczepowa
 62
     0
100
AcDbPolyline
 90
       73
 70
     1
 43
0.0
 10
117.7936006522255
 20
13.88706118999859
 42
0.4036950128700794
 10
117.6187143277022
 20
14.05575456691373
 10
117.4533824783668
 20
14.05575456691373
 42
0.4044793638648319
 10
117.2784797808439
 20
13.88658949615753
 10
117.2784797808439
 20
6.88075456691378
 42
-0.414213562373095
 10
117.1034797808439
 20
6.705754566913825
 10
115.1222818735361
 20
6.705754566913825
 42
0.3477027803384639
 10
114.7816821711994
 20
6.436326539509551
 10
114.4861185518133
 20
5.186898512105486
 42
0.4840067329220665
 10
115.1673179564871
 20
4.325754566913488
 10
116.0546741922954
 20
4.325754566913488
 42
0.4875730548766338
 10
116.3943213032745
 20
4.760252140864864
 10
116.3550980548179
 20
4.917914217993271
 42
0.5284107086676045
 10
115.9212602324088
 20
5.0786077755712
 10
115.7937715105879
 20
4.988072306451855
 42
-0.1556137142151864
 10
115.6924464270717
 20
4.955754566913825
 10
115.5212823067194
 20
4.955754566913825
 42
-0.4840067329219216
 10
115.180682604382
 20
5.386326539509483
 10
115.3119052742902
 20
5.941040553211579
 42
-0.3477027803384214
 10
115.4822051254585
 20
6.075754566913488
 10
129.5140699518152
 20
6.075754566913488
 42
-0.3477027803387637
 10
129.6843698029836
 20
5.941040553211238
 10
129.8155924728915
 20
5.386326539509483
 42
-0.4840067329220452
 10
129.4749927705548
 20
4.955754566913825
 10
129.3038286502018
 20
4.955754566913825
 42
-0.1556137142152922
 10
129.2025035666855
 20
4.988072306451855
 10
129.0750148448647
 20
5.0786077755712
 42
0.5284107086677254
 10
128.6411770224555
 20
4.917914217993271
 10
128.6019537739992
 20
4.760252140864864
 42
0.4875730548766221
 10
128.9416008849783
 20
4.325754566913488
 10
129.8289571207864
 20
4.325754566913488
 42
0.4840067329219873
 10
130.5101565254604
 20
5.186898512105486
 10
130.2145929060744
 20
6.436326539509551
 42
0.3477027803384651
 10
129.8739932037373
 20
6.705754566913825
 10
127.8927952964298
 20
6.705754566913825
 42
-0.4142135623731616
 10
127.7177952964299
 20
6.88075456691378
 10
127.7177952964299
 20
10.10620982852585
 42
0.4142135623731616
 10
127.5427952964299
 20
10.28120982852592
 10
127.3774634470945
 20
10.28120982852592
 42
0.404479363868036
 10
127.2025607495714
 20
10.11204475776778
 10
127.2025522340076
 20
9.829253830162102
 10
126.852536423952
 20
9.129222210051026
 10
127.2025311542512
 20
9.129222210051026
 10
127.202503582769
 20
8.213608734736923
 10
126.8524877727136
 20
7.513577114626187
 10
127.2024825030126
 20
7.513577114626187
 10
127.2024634470946
 20
6.88075456691378
 42
-0.4142135623731616
 10
127.0274634470941
 20
6.705754566913825
 10
126.528683887418
 20
6.705754566913825
 42
0.2723168822250248
 10
125.8860502079703
 20
6.705754566913825
 10
125.2922740510656
 20
6.705754566913825
 42
0.2723168822250248
 10
124.6496403716179
 20
6.705754566913825
 10
124.0558642147131
 20
6.705754566913825
 42
0.2723168822250026
 10
123.4132305352658
 20
6.705754566913825
 10
122.8194543783607
 20
6.705754566913825
 42
0.2723168822251265
 10
122.1768206989132
 20
6.705754566913825
 10
121.5830445420082
 20
6.705754566913825
 42
0.2723168822250248
 10
120.9404108625605
 20
6.705754566913825
 10
120.3466347056557
 20
6.705754566913825
 42
0.2723168822250248
 10
119.704001026208
 20
6.705754566913825
 10
119.1102248693033
 20
6.705754566913825
 42
0.2723168822250248
 10
118.4675911898557
 20
6.705754566913825
 10
117.9688116301796
 20
6.705754566913825
 42
-0.4142047426306834
 10
117.7938116302592
 20
6.880749297212347
 10
117.7937925742617
 20
7.513577114626187
 10
118.1437873045601
 20
7.513577114626187
 10
117.7937714945051
 20
8.213608734736354
 10
117.7937114184986
 20
10.20865567175112
 10
118.1437225075932
 20
10.20865567175112
 10
117.7936903377568
 20
10.90872001142408
 10
117.79363026175
 20
12.90376694843884
 10
118.1436413508446
 20
12.90376694843884
 10
117.7936091810082
 20
13.60383128811169
  0
LWPOLYLINE
  5
22EBD
330
1F
100
AcDbEntity
  8
Listwa zaczepowa
 62
     0
100
AcDbPolyline
 90
      104
 70
     1
 43
0.0
 10
154.6789571207865
 20
6.950754566913034
 10
141.0289571207864
 20
6.950754566913034
 42
-0.4068582807889746
 10
140.6790680498389
 20
7.291943322311013
 10
140.6790353673453
 20
8.37728692377597
 10
141.0290300976442
 20
8.37728692377597
 10
140.6790142875889
 20
9.077318543886818
 10
140.6789867161067
 20
9.992932019200694
 10
141.0289814464057
 20
9.992932019200694
 10
140.6789656363504
 20
10.69296363931177
 10
140.6789571207865
 20
10.97575456691312
 42
0.4142135623731616
 10
140.3289571207866
 20
11.32575456691303
 10
140.1539571207864
 20
11.32575456691303
 42
0.414213562373095
 10
139.8039571207865
 20
10.97575456691312
 10
139.8039571207865
 20
7.30075456691317
 42
-0.414213562373095
 10
139.4539571207866
 20
6.950754566913034
 10
135.2539571207863
 20
6.950754566913034
 42
-0.406858280789016
 10
134.9040680498388
 20
7.291943322311013
 10
134.9040353673452
 20
8.37728692377597
 10
135.2540300976441
 20
8.37728692377597
 10
134.9040142875888
 20
9.077318543886818
 10
134.9039867161069
 20
9.992932019200694
 10
135.2539814464058
 20
9.992932019200694
 10
134.9039656363503
 20
10.69296363931177
 10
134.9039571207864
 20
10.97575456691312
 42
0.4142135623731616
 10
134.5539571207865
 20
11.32575456691303
 10
134.3789571207863
 20
11.32575456691303
 42
0.414213562373095
 10
134.0289571207864
 20
10.97575456691312
 10
134.0289571207864
 20
4.67575456691317
 42
0.4142135623731616
 10
134.3789571207863
 20
4.325754566913034
 10
135.4289571207865
 20
4.325754566913034
 42
0.414213562373095
 10
135.6039571207864
 20
4.500754566913102
 10
135.6039571207864
 20
4.850754566913125
 42
0.4142135623731616
 10
135.4289571207865
 20
5.025754566913079
 10
135.0789571207866
 20
5.025754566913079
 42
-0.4142135623731616
 10
134.9039571207864
 20
5.200754566913034
 10
134.9039571207864
 20
5.725754566913125
 42
-0.414213562373095
 10
135.2539571207863
 20
6.075754566913034
 10
139.4539571207866
 20
6.075754566913034
 42
-0.4142135623731616
 10
139.8039571207865
 20
5.725754566913125
 10
139.8039571207865
 20
5.200754566913034
 42
-0.414213562373095
 10
139.6289571207863
 20
5.025754566913079
 10
139.1039571207864
 20
5.025754566913079
 42
0.414213562373095
 10
138.9289571207865
 20
4.850754566913125
 10
138.9289571207865
 20
4.500754566913102
 42
0.4142135623731616
 10
139.1039571207864
 20
4.325754566913034
 10
141.3789571207863
 20
4.325754566913034
 42
0.414213562373095
 10
141.5539571207865
 20
4.500754566913102
 10
141.5539571207865
 20
4.850754566913125
 42
0.4142135623731616
 10
141.3789571207863
 20
5.025754566913079
 10
140.8539571207864
 20
5.025754566913079
 42
-0.4142135623731616
 10
140.6789571207865
 20
5.200754566913034
 10
140.6789571207865
 20
5.725754566913125
 42
-0.414213562373095
 10
141.0289571207864
 20
6.075754566913034
 10
154.6789571207865
 20
6.075754566913034
 42
-0.4142135623731616
 10
155.0289571207864
 20
5.725754566913125
 10
155.0289571207864
 20
5.200754566913034
 42
-0.414213562373095
 10
154.8539571207864
 20
5.025754566913079
 10
154.3289571207866
 20
5.025754566913079
 42
0.414213562373095
 10
154.1539571207864
 20
4.850754566913125
 10
154.1539571207864
 20
4.500754566913102
 42
0.4142135623731616
 10
154.3289571207866
 20
4.325754566913034
 10
156.6039571207864
 20
4.325754566913034
 42
0.414213562373095
 10
156.7789571207864
 20
4.500754566913102
 10
156.7789571207864
 20
4.850754566913125
 42
0.4142135623731616
 10
156.6039571207864
 20
5.025754566913079
 10
156.0789571207866
 20
5.025754566913079
 42
-0.4142135623731616
 10
155.9039571207864
 20
5.200754566913034
 10
155.9039571207864
 20
5.725754566913352
 42
-0.414213562373095
 10
156.2539571207863
 20
6.075754566913034
 10
160.4539571207866
 20
6.075754566913034
 42
-0.4142135623731616
 10
160.8039571207865
 20
5.725754566913125
 10
160.8039571207865
 20
5.200754566913034
 42
-0.414213562373095
 10
160.6289571207863
 20
5.025754566913079
 10
160.2789571207864
 20
5.025754566913079
 42
0.414213562373095
 10
160.1039571207864
 20
4.850754566913125
 10
160.1039571207864
 20
4.500754566913102
 42
0.4142135623731616
 10
160.2789571207864
 20
4.325754566913034
 10
161.3289571207866
 20
4.325754566913034
 42
0.414213562373095
 10
161.6789571207865
 20
4.67575456691317
 10
161.6789571207865
 20
10.97575456691335
 42
0.4142135623731616
 10
161.3289571207866
 20
11.32575456691349
 10
161.1539571207864
 20
11.32575456691303
 42
0.4142135623731616
 10
160.8039571207865
 20
10.97575456691312
 10
160.8039486052226
 20
10.69296363931223
 10
160.4539327951673
 20
9.992932019200694
 10
160.803927525466
 20
9.992932019200694
 10
160.8038999539843
 20
9.077318543886818
 10
160.453884143929
 20
8.37728692377597
 10
160.8038788742277
 20
8.37728692377597
 10
160.8038461917341
 20
7.291943322314197
 42
-0.4068582807916911
 10
160.4539571207866
 20
6.950754566913034
 10
156.2539571207863
 20
6.950754566913034
 42
-0.4142135623731616
 10
155.9039571207864
 20
7.30075456691317
 10
155.9039571207864
 20
10.97575456691335
 42
0.4142135623731616
 10
155.5539571207865
 20
11.32575456691349
 10
155.3789571207863
 20
11.32575456691303
 42
0.4142135623731616
 10
155.0289571207864
 20
10.97575456691312
 10
155.0289486052225
 20
10.69296363931223
 10
154.6789327951672
 20
9.992932019200694
 10
155.0289275254661
 20
9.992932019200694
 10
155.028899953984
 20
9.077318543886818
 10
154.6788841439287
 20
8.37728692377597
 10
155.0288788742276
 20
8.37728692377597
 10
155.028846191734
 20
7.291943322314197
 42
-0.4068582807916911
  0
LWPOLYLINE
  5
22EBE
330
1F
100
AcDbEntity
  8
Listwa zaczepowa
 62
     0
100
AcDbPolyline
 90
       40
 70
     1
 43
0.0
 10
76.35504792326408
 20
4.325754566913034
 10
74.0800479232641
 20
4.325754566913034
 42
-0.414213562373095
 10
73.90504792326404
 20
4.500754566913102
 10
73.90504792326404
 20
7.545754566913061
 42
-0.414213562373095
 10
74.0800479232641
 20
7.720754566913129
 10
76.7050479232641
 20
7.720754566913129
 42
0.414213562373095
 10
76.88004792326417
 20
7.895754566913084
 10
76.88004792326417
 20
11.85075456691312
 42
-0.414213562373095
 10
77.05504792326413
 20
12.02575456691308
 10
78.4550479232641
 20
12.02575456691308
 42
-0.414213562373095
 10
78.63004792326417
 20
11.85075456691312
 10
78.63004792326417
 20
7.895754566913084
 42
0.414213562373095
 10
78.80504792326413
 20
7.720754566913129
 10
86.50504792326417
 20
7.720754566913129
 42
0.414213562373095
 10
86.68004792326413
 20
7.895754566913084
 10
86.68004792326413
 20
11.85075456691312
 42
-0.414213562373095
 10
86.85504792326408
 20
12.02575456691308
 10
88.25504792326417
 20
12.02575456691308
 42
-0.414213562373095
 10
88.43004792326413
 20
11.85075456691312
 10
88.43004792326413
 20
7.895754566913084
 42
0.414213562373095
 10
88.60504792326408
 20
7.720754566913129
 10
91.23004792326408
 20
7.720754566913129
 42
-0.414213562373095
 10
91.40504792326404
 20
7.545754566913061
 10
91.40504792326404
 20
4.500754566913102
 42
-0.414213562373095
 10
91.23004792326408
 20
4.325754566913034
 10
88.9550479232641
 20
4.325754566913034
 42
-0.4142135623730971
 10
88.78004792326404
 20
4.500754566913102
 10
88.78004792326404
 20
4.815754566913043
 42
-0.4142135623730929
 10
88.9550479232641
 20
4.990754566913111
 10
89.8300479232641
 20
4.990754566913111
 42
0.414213562373095
 10
90.00504792326417
 20
5.165754566913179
 10
90.00504792326417
 20
5.865754566913111
 42
0.414213562373095
 10
89.8300479232641
 20
6.040754566913179
 10
75.48004792326408
 20
6.040754566913179
 42
0.414213562373095
 10
75.30504792326413
 20
5.865754566913111
 10
75.30504792326413
 20
5.165754566913179
 42
0.414213562373095
 10
75.48004792326408
 20
4.990754566913111
 10
76.35504792326408
 20
4.990754566913111
 42
-0.4142135623730929
 10
76.53004792326404
 20
4.815754566913043
 10
76.53004792326404
 20
4.500754566913102
 42
-0.4142135623730971
  0
ENDSEC
  0
SECTION
  2
OBJECTS
  0
DICTIONARY
  5
C
330
0
100
AcDbDictionary
281
     1
  3
ACAD_CIP_PREVIOUS_PRODUCT_INFO
350
216
  3
ACAD_COLOR
350
6B
  3
ACAD_DETAILVIEWSTYLE
350
21B
  3
ACAD_DGNDEFINITIONS
350
261
  3
ACAD_DWFDEFINITIONS
350
260
  3
ACAD_GROUP
350
D
  3
ACAD_IMAGE_DICT
350
1A120
  3
ACAD_LAYOUT
350
1A
  3
ACAD_MATERIAL
350
6A
  3
ACAD_MLEADERSTYLE
350
12D
  3
ACAD_MLINESTYLE
350
17
  3
ACAD_PDFDEFINITIONS
350
25F
  3
ACAD_PLOTSETTINGS
350
19
  3
ACAD_PLOTSTYLENAME
350
E
  3
ACAD_SCALELIST
350
10C
  3
ACAD_SECTIONVIEWSTYLE
350
219
  3
ACAD_TABLESTYLE
350
7E
  3
ACAD_VISUALSTYLE
350
EF
  3
ACDB_RECOMPOSE_DATA
350
22F21
  3
AcDbVariableDictionary
350
5E
  0
DICTIONARY
  5
1FF
330
2
100
AcDbDictionary
280
     1
281
     1
  3
ACAD_LAYERSTATES
360
200
  3
ACLYDICTIONARY
360
22468
  0
DICTIONARY
  5
17DE
330
1F
100
AcDbDictionary
280
     1
281
     1
  3
ACAD_SORTENTS
360
17DF
  0
DICTIONARY
  5
22A9C
330
22A9B
100
AcDbDictionary
280
     1
281
     1
  3
AcDbContextDataManager
360
22A9D
  0
DICTIONARY
  5
22ABF
330
22ABE
100
AcDbDictionary
280
     1
281
     1
  3
AcDbContextDataManager
360
22AC0
  0
DICTIONARY
  5
22AC4
330
22AC3
100
AcDbDictionary
280
     1
281
     1
  3
AcDbContextDataManager
360
22AC5
  0
DICTIONARY
  5
22AFA
330
22AF9
100
AcDbDictionary
280
     1
281
     1
  3
AcDbContextDataManager
360
22AFB
  0
DICTIONARY
  5
22AFF
330
22AFE
100
AcDbDictionary
280
     1
281
     1
  3
AcDbContextDataManager
360
22B00
  0
DICTIONARY
  5
22B04
330
22B03
100
AcDbDictionary
280
     1
281
     1
  3
AcDbContextDataManager
360
22B05
  0
DICTIONARY
  5
22DDE
330
22DDD
100
AcDbDictionary
280
     1
281
     1
  3
AcDbContextDataManager
360
22DDF
  0
DICTIONARY
  5
22DE3
330
22DE2
100
AcDbDictionary
280
     1
281
     1
  3
AcDbContextDataManager
360
22DE4
  0
DICTIONARY
  5
22DE9
330
22DE8
100
AcDbDictionary
280
     1
281
     1
  3
AcDbContextDataManager
360
22DEA
  0
DICTIONARY
  5
22DEE
330
22DED
100
AcDbDictionary
280
     1
281
     1
  3
ACAD_DIMASSOC
360
22DEF
  0
XRECORD
  5
216
102
{ACAD_REACTORS
330
C
102
}
330
C
100
AcDbXrecord
280
     1
300
ACD
300
2013
300
ACD_F_S
  0
DICTIONARY
  5
6B
102
{ACAD_REACTORS
330
C
102
}
330
C
100
AcDbDictionary
281
     1
  0
DICTIONARY
  5
21B
102
{ACAD_REACTORS
330
C
102
}
330
C
100
AcDbDictionary
281
     1
  3
Metric50
350
21C
  0
DICTIONARY
  5
261
102
{ACAD_REACTORS
330
C
102
}
330
C
100
AcDbDictionary
281
     1
  0
DICTIONARY
  5
260
102
{ACAD_REACTORS
330
C
102
}
330
C
100
AcDbDictionary
281
     1
  0
DICTIONARY
  5
D
102
{ACAD_REACTORS
330
C
102
}
330
C
100
AcDbDictionary
281
     1
  0
DICTIONARY
  5
1A120
102
{ACAD_REACTORS
330
C
102
}
330
C
100
AcDbDictionary
281
     1
  3
Logo Klinar
350
1A121
  0
DICTIONARY
  5
1A
102
{ACAD_REACTORS
330
C
102
}
330
C
100
AcDbDictionary
281
     1
  3
Model
350
22
  3
Układ1
350
1DFC6
  0
DICTIONARY
  5
6A
102
{ACAD_REACTORS
330
C
102
}
330
C
100
AcDbDictionary
281
     1
  3
ByBlock
350
ED
  3
ByLayer
350
EC
  3
Global
350
EE
  0
DICTIONARY
  5
12D
102
{ACAD_REACTORS
330
C
102
}
330
C
100
AcDbDictionary
281
     1
  3
Standard
350
12E
  0
DICTIONARY
  5
17
102
{ACAD_REACTORS
330
C
102
}
330
C
100
AcDbDictionary
281
     1
  3
Standard
350
18
  0
DICTIONARY
  5
25F
102
{ACAD_REACTORS
330
C
102
}
330
C
100
AcDbDictionary
281
     1
  0
DICTIONARY
  5
19
102
{ACAD_REACTORS
330
C
102
}
330
C
100
AcDbDictionary
281
     1
  3
DRUK A4 PION
350
18DA
  3
DRUK A4 PION 1-2
350
18FF
  3
DRUK A4 POZ
350
18D9
  3
DRUK A4 POZ 1-2
350
18EC
  3
DRUK A5
350
18D8
  3
PDF A1 POZ
350
1905
  3
PDF A2 POZ
350
1904
  3
PDF A3 PION
350
1903
  3
PDF A3 POZ
350
1902
  3
PDF A4 PION
350
1901
  3
PDF A4 POZ
350
1900
  0
ACDBDICTIONARYWDFLT
  5
E
102
{ACAD_REACTORS
330
C
102
}
330
C
100
AcDbDictionary
281
     1
  3
Normal
350
F
100
AcDbDictionaryWithDefault
340
F
  0
DICTIONARY
  5
10C
102
{ACAD_REACTORS
330
C
102
}
330
C
100
AcDbDictionary
281
     1
  3
*A1
350
1D095
  3
*A10
350
1D771
  3
*A11
350
1D772
  3
*A12
350
1D096
  3
*A13
350
1D773
  3
*A14
350
1D774
  3
*A15
350
1D775
  3
*A16
350
1D776
  3
*A17
350
1D777
  3
*A18
350
1D778
  3
*A19
350
1D779
  3
*A2
350
1D09E
  3
*A20
350
1D77A
  3
*A21
350
1D77B
  3
*A22
350
1D77C
  3
*A23
350
1D097
  3
*A24
350
1D77D
  3
*A25
350
1D77E
  3
*A26
350
1D77F
  3
*A27
350
1D780
  3
*A28
350
1D781
  3
*A29
350
1D782
  3
*A3
350
1D09F
  3
*A30
350
1D783
  3
*A31
350
1D784
  3
*A32
350
1D785
  3
*A33
350
1D786
  3
*A34
350
1D098
  3
*A35
350
1D787
  3
*A36
350
1D788
  3
*A37
350
1D789
  3
*A38
350
1D78A
  3
*A39
350
1D78B
  3
*A4
350
1D0A0
  3
*A40
350
1D78C
  3
*A41
350
1D78D
  3
*A42
350
1D78E
  3
*A43
350
1D78F
  3
*A44
350
1D790
  3
*A45
350
1D099
  3
*A46
350
1D791
  3
*A47
350
1D792
  3
*A48
350
1D793
  3
*A49
350
1D794
  3
*A5
350
1D0A1
  3
*A50
350
1D795
  3
*A51
350
1D796
  3
*A52
350
1D797
  3
*A53
350
1D798
  3
*A54
350
1D799
  3
*A55
350
1D79A
  3
*A56
350
1D09A
  3
*A57
350
1D79B
  3
*A58
350
1D79C
  3
*A59
350
1D79D
  3
*A6
350
1D0A2
  3
*A60
350
1D79E
  3
*A61
350
1D79F
  3
*A62
350
1D7A0
  3
*A63
350
1D7A1
  3
*A64
350
1D7A2
  3
*A65
350
1D7A3
  3
*A66
350
1D7A4
  3
*A67
350
1D09B
  3
*A68
350
1D7A5
  3
*A69
350
1D7A6
  3
*A7
350
1D0A3
  3
*A70
350
1D7A7
  3
*A71
350
1D7A8
  3
*A72
350
1D7A9
  3
*A73
350
1D7AA
  3
*A74
350
1D7AB
  3
*A75
350
1D7AC
  3
*A76
350
1D7AD
  3
*A77
350
1D7AE
  3
*A78
350
1D09C
  3
*A79
350
1D7AF
  3
*A8
350
1D0A4
  3
*A80
350
1D7B0
  3
*A81
350
1D7B1
  3
*A82
350
1D09D
  3
*A9
350
1D770
  3
A0
350
1CD00
  3
A1
350
1CD01
  3
A2
350
1CD02
  3
A3
350
1CD03
  3
A4
350
1CD04
  3
A5
350
1CD05
  3
A6
350
1CD06
  3
A7
350
1CD07
  3
A8
350
1CD08
  3
A9
350
1CD09
  3
B0
350
1CD0A
  3
B1
350
1CD0B
  3
B2
350
1CD0C
  3
B3
350
1CD0D
  3
B4
350
1CD0E
  3
B5
350
1CD0F
  3
B6
350
1CD10
  0
DICTIONARY
  5
219
102
{ACAD_REACTORS
330
C
102
}
330
C
100
AcDbDictionary
281
     1
  3
Metric50
350
21A
  0
DICTIONARY
  5
7E
102
{ACAD_REACTORS
330
C
102
}
330
C
100
AcDbDictionary
281
     1
  3
Standard
350
7F
  0
DICTIONARY
  5
EF
102
{ACAD_REACTORS
330
C
102
}
330
C
100
AcDbDictionary
281
     1
  3
2dWireframe
350
F5
  3
Basic
350
F4
  3
Brighten
350
FB
  3
ColorChange
350
FF
  3
Conceptual
350
F8
  3
Dim
350
FA
  3
EdgeColorOff
350
1E6
  3
Facepattern
350
FE
  3
Flat
350
F0
  3
FlatWithEdges
350
F1
  3
Gouraud
350
F2
  3
GouraudWithEdges
350
F3
  3
Hidden
350
F7
  3
JitterOff
350
1E4
  3
Linepattern
350
FD
  3
OverhangOff
350
1E5
  3
Realistic
350
F9
  3
Shaded
350
1F3
  3
Shaded with edges
350
1F2
  3
Shades of Gray
350
1EF
  3
Sketchy
350
1F0
  3
Thicken
350
FC
  3
Wireframe
350
F6
  3
X-Ray
350
1F1
  0
XRECORD
  5
22F21
102
{ACAD_REACTORS
330
C
102
}
330
C
100
AcDbXrecord
280
     1
 90
        1
330
7F
  0
DICTIONARY
  5
5E
102
{ACAD_REACTORS
330
C
102
}
330
C
100
AcDbDictionary
281
     1
  3
CANNOSCALE
350
22B3D
  3
CMLEADERSTYLE
350
145
  3
CTABLESTYLE
350
84
  3
CVIEWDETAILSTYLE
350
227
  3
CVIEWSECTIONSTYLE
350
228
  3
DIMASSOC
350
5F
  3
HIDETEXT
350
63
  3
LAYEREVAL
350
1AE
  3
LAYERNOTIFY
350
1AF
  3
MSLTSCALE
350
228B0
  3
XCLIPFRAME
350
259
  0
DICTIONARY
  5
200
102
{ACAD_REACTORS
330
1FF
102
}
330
1FF
100
AcDbDictionary
281
     1
  0
DICTIONARY
  5
22468
102
{ACAD_REACTORS
330
1FF
102
}
330
1FF
100
AcDbDictionary
281
     1
1001
ACAD
1000
All
  0
SORTENTSTABLE
  5
17DF
102
{ACAD_REACTORS
330
17DE
102
}
330
17DE
100
AcDbSortentsTable
330
1F
331
0
  5
224DB
  0
DICTIONARY
  5
22A9D
102
{ACAD_REACTORS
330
22A9C
102
}
330
22A9C
100
AcDbDictionary
281
     1
  3
ACDB_ANNOTATIONSCALES
350
22A9E
  0
DICTIONARY
  5
22AC0
102
{ACAD_REACTORS
330
22ABF
102
}
330
22ABF
100
AcDbDictionary
281
     1
  3
ACDB_ANNOTATIONSCALES
350
22AC1
  0
DICTIONARY
  5
22AC5
102
{ACAD_REACTORS
330
22AC4
102
}
330
22AC4
100
AcDbDictionary
281
     1
  3
ACDB_ANNOTATIONSCALES
350
22AC6
  0
DICTIONARY
  5
22AFB
102
{ACAD_REACTORS
330
22AFA
102
}
330
22AFA
100
AcDbDictionary
281
     1
  3
ACDB_ANNOTATIONSCALES
350
22AFC
  0
DICTIONARY
  5
22B00
102
{ACAD_REACTORS
330
22AFF
102
}
330
22AFF
100
AcDbDictionary
281
     1
  3
ACDB_ANNOTATIONSCALES
350
22B01
  0
DICTIONARY
  5
22B05
102
{ACAD_REACTORS
330
22B04
102
}
330
22B04
100
AcDbDictionary
281
     1
  3
ACDB_ANNOTATIONSCALES
350
22B06
  0
DICTIONARY
  5
22DDF
102
{ACAD_REACTORS
330
22DDE
102
}
330
22DDE
100
AcDbDictionary
281
     1
  3
ACDB_ANNOTATIONSCALES
350
22DE0
  0
DICTIONARY
  5
22DE4
102
{ACAD_REACTORS
330
22DE3
102
}
330
22DE3
100
AcDbDictionary
281
     1
  3
ACDB_ANNOTATIONSCALES
350
22DE5
  0
DICTIONARY
  5
22DEA
102
{ACAD_REACTORS
330
22DE9
102
}
330
22DE9
100
AcDbDictionary
281
     1
  3
ACDB_ANNOTATIONSCALES
350
22DEB
  0
DIMASSOC
  5
22DEF
102
{ACAD_REACTORS
330
22DEE
102
}
330
22DEE
100
AcDbDimAssoc
330
22DED
 90
        3
 70
     0
 71
     0
  1
AcDbOsnapPointRef
 72
    13
331
22DEC
 73
     2
 91
        4
 40
0.0
 10
0.0
 20
0.0
 30
2000000000000000E+50
 75
     0
  1
AcDbOsnapPointRef
 72
    13
331
22DEC
 73
     2
 91
       27
 40
0.0
 10
0.0
 20
0.0
 30
2000000000000000E+50
 75
     0
  0
ACAD_PROXY_OBJECT
  5
21C
102
{ACAD_REACTORS
330
21B
102
}
102
{ACAD_XDICTIONARY
360
22C2D
102
}
330
21B
100
AcDbProxyObject
 90
      499
 91
      516
 95
   393245
 70
     0
162
              1030
311
42134019401D001C801A4018C00D400C0024DC9400F001700104018C0158018401C80080015801A4019401DC0110019401D0018401A401B00124019000F80094008000A0009400F001700104018C0158018401C80080015801A4019401DC014C018C018401B0019400800170019800800088009401CC01B8008800F8009400
311
A400
161
               603
310
B207000000180000000000000000A20403000000180000000000000000A2023300000018001000000180000000000000000A20400000000000017202028CC000000600023300000018000000
340
11
340
0
340
16
340
11
340
16
340
16
 94
        0
  0
IMAGEDEF
  5
1A121
102
{ACAD_REACTORS
330
1A120
102
}
330
1A120
100
AcDbRasterImageDef
 90
        0
  1
D:\_DYSK_\Konwent\Materiały\Reszta\Logo Klinar.jpg
 10
800.0
 20
600.0
 11
0.2645833333333333
 21
0.2645833333333333
280
     1
281
     5
  0
LAYOUT
  5
22
102
{ACAD_REACTORS
330
1A
102
}
330
1A
100
AcDbPlotSettings
  1

  2
DWG To PDF.pc3
  4
User1499
  6

 40
0.8
 41
0.8
 42
0.8
 43
0.8
 44
420.0
 45
297.0
 46
4.200000000000102
 47
4.199999999999989
 48
0.0
 49
0.0
140
409.9999999999998
141
287.0
142
1.0
143
1.0
 70
 11908
 72
     1
 73
     0
 74
     4
  7

 75
     0
 76
     0
 77
     4
 78
   300
147
1.0
148
0.0
149
0.0
100
AcDbLayout
  1
Model
 70
     1
 71
     0
 10
0.0
 20
0.0
 11
12.0
 21
9.0
 12
0.0
 22
0.0
 32
0.0
 14
0.0
 24
0.0
 34
0.0
 15
409.9999999999998
 25
287.0
 35
0.0
146
0.0
 13
0.0
 23
0.0
 33
0.0
 16
1.0
 26
0.0
 36
0.0
 17
0.0
 27
1.0
 37
0.0
 76
     0
330
1F
331
EA
1001
ACAD_PSEXT
1000
DWG To PDF.pc3
1000
HaoChenPDF
1000
Plik
1000
PDF Print Driver of GreatStar Tech
1070
     0
  0
LAYOUT
  5
1DFC6
102
{ACAD_REACTORS
330
1A
102
}
330
1A
100
AcDbPlotSettings
  1

  2
none_device
  4
ISO_A4_(210.00_x_297.00_MM)
  6

 40
20.0
 41
7.5
 42
7.5
 43
20.0
 44
210.0
 45
297.0
 46
0.0
 47
0.0
 48
0.0
 49
0.0
140
0.0
141
0.0
142
1.0
143
1.0
 70
   688
 72
     1
 73
     1
 74
     5
  7

 75
    16
 76
     0
 77
     2
 78
   300
147
1.0
148
0.0
149
0.0
100
AcDbLayout
  1
Układ1
 70
     1
 71
     1
 10
0.0
 20
0.0
 11
0.0
 21
0.0
 12
0.0
 22
0.0
 32
0.0
 14
0.0
 24
0.0
 34
0.0
 15
0.0
 25
0.0
 35
0.0
146
0.0
 13
0.0
 23
0.0
 33
0.0
 16
1.0
 26
0.0
 36
0.0
 17
0.0
 27
1.0
 37
0.0
 76
     0
330
1DFC5
  0
MATERIAL
  5
ED
102
{ACAD_REACTORS
330
6A
102
}
102
{ACAD_XDICTIONARY
360
1F9
102
}
330
6A
100
AcDbMaterial
  1
ByBlock
 72
     1
 73
     2
 78
     2
172
     2
176
     2
270
     2
274
     2
 94
       63
  0
MATERIAL
  5
EC
102
{ACAD_REACTORS
330
6A
102
}
102
{ACAD_XDICTIONARY
360
1F7
102
}
330
6A
100
AcDbMaterial
  1
ByLayer
 72
     1
 73
     2
 78
     2
172
     2
176
     2
270
     2
274
     2
 94
       63
  0
MATERIAL
  5
EE
102
{ACAD_REACTORS
330
6A
102
}
102
{ACAD_XDICTIONARY
360
173
102
}
330
6A
100
AcDbMaterial
  1
Global
 72
     1
 73
     2
 43
0.0007999999797903
 43
0.0
 43
0.0
 43
0.0
 43
0.0
 43
0.0007999999797903
 43
0.0
 43
0.0
 43
0.0
 43
0.0
 43
1.0
 43
0.0
 43
0.0
 43
0.0
 43
0.0
 43
1.0
 78
     2
172
     2
 49
0.0007999999797903
 49
0.0
 49
0.0
 49
0.0
 49
0.0
 49
0.0007999999797903
 49
0.0
 49
0.0
 49
0.0
 49
0.0
 49
1.0
 49
0.0
 49
0.0
 49
0.0
 49
0.0
 49
1.0
176
     2
142
0.0007999999797903
142
0.0
142
0.0
142
0.0
142
0.0
142
0.0007999999797903
142
0.0
142
0.0
142
0.0
142
0.0
142
1.0
142
0.0
142
0.0
142
0.0
142
0.0
142
1.0
270
     2
144
0.0007999999797903
144
0.0
144
0.0
144
0.0
144
0.0
144
0.0007999999797903
144
0.0
144
0.0
144
0.0
144
0.0
144
1.0
144
0.0
144
0.0
144
0.0
144
0.0
144
1.0
274
     2
 94
       63
1001
ACAD
1070
    -1
1070
     3
1070
     0
1000

1071
        0
1070
     0
  0
MLEADERSTYLE
  5
12E
102
{ACAD_REACTORS
330
12D
102
}
330
12D
100
AcDbMLeaderStyle
179
     2
170
     2
171
     1
172
     0
 90
        2
 40
0.0
 41
0.0
173
     1
 91
-1056964608
340
14
 92
       -2
290
     1
 42
2.0
291
     1
 43
8.0
  3
Standard
341
16686
 44
4.0
300

342
11
174
     1
178
     1
175
     1
176
     0
 93
-1056964608
 45
4.0
292
     1
297
     0
 46
4.0
343
0
 94
-1056964608
 47
1.0
 49
1.0
140
1.0
293
     1
141
0.0
294
     1
177
     0
142
1.0
295
     0
296
     0
143
3.75
271
     0
272
     9
273
     9
1001
ACAD_MLEADERVER
1070
     2
  0
MLINESTYLE
  5
18
102
{ACAD_REACTORS
330
17
102
}
330
17
100
AcDbMlineStyle
  2
STANDARD
 70
     0
  3

 62
   256
 51
90.0
 52
90.0
 71
     2
 49
0.5
 62
   256
  6
BYLAYER
 49
-0.5
 62
   256
  6
BYLAYER
  0
PLOTSETTINGS
  5
18DA
102
{ACAD_REACTORS
330
19
102
}
330
19
100
AcDbPlotSettings
  1
DRUK A4 PION
  2
Samsung M2020 Series (USB001)
  4
A4
  6

 40
4.2
 41
4.3
 42
4.3
 43
4.2
 44
210.0
 45
296.9
 46
0.7499999999999716
 47
0.6999999999999886
 48
445.0000000000013
 49
1413.000000000001
140
645.0000000000014
141
1700.000000000001
142
1.0
143
1.0
 70
  1700
 72
     1
 73
     0
 74
     4
  7
monochrome.ctb
 75
     0
 76
     0
 77
     4
 78
   300
147
1.0
148
-17.51968503937013
149
-55.62992125984258
1001
ACAD_PSEXT
1000
Samsung M2020 Series (USB001)
1000
Samsung M2020 Series
1000
USB001
1000

1070
     0
  0
PLOTSETTINGS
  5
18FF
102
{ACAD_REACTORS
330
19
102
}
330
19
100
AcDbPlotSettings
  1
DRUK A4 PION 1-2
  2
Samsung M2020 Series (USB001)
  4
A4
  6

 40
4.2
 41
4.3
 42
4.3
 43
4.2
 44
210.0
 45
296.9
 46
0.7499999999999432
 47
0.6999999999999886
 48
1239.000000000001
 49
1413.000000000001
140
1639.000000000002
141
1987.000000000001
142
1.0
143
2.0
 70
  1700
 72
     1
 73
     0
 74
     4
  7
monochrome.ctb
 75
     0
 76
     0
 77
     4
 78
   300
147
1.0
148
-48.77952755905518
149
-55.62992125984258
1001
ACAD_PSEXT
1000
Samsung M2020 Series (USB001)
1000
Samsung M2020 Series
1000
USB001
1000

1070
     0
  0
PLOTSETTINGS
  5
18D9
102
{ACAD_REACTORS
330
19
102
}
330
19
100
AcDbPlotSettings
  1
DRUK A4 POZ
  2
Samsung M2020 Series (USB001)
  4
A4
  6

 40
4.2
 41
4.3
 42
4.3
 43
4.2
 44
210.0
 45
296.9
 46
0.75
 47
0.6999999999999886
 48
148.0000000000014
 49
1413.000000000001
140
435.0000000000014
141
1613.000000000001
142
1.0
143
1.0
 70
  1700
 72
     1
 73
     1
 74
     4
  7
monochrome.ctb
 75
     0
 76
     0
 77
     4
 78
   300
147
1.0
148
-5.826771653543363
149
-55.62992125984258
1001
ACAD_PSEXT
1000
Samsung M2020 Series (USB001)
1000
Samsung M2020 Series
1000
USB001
1000

1070
     0
  0
PLOTSETTINGS
  5
18EC
102
{ACAD_REACTORS
330
19
102
}
330
19
100
AcDbPlotSettings
  1
DRUK A4 POZ 1-2
  2
Samsung M2020 Series (USB001)
  4
A4
  6

 40
4.2
 41
4.3
 42
4.3
 43
4.2
 44
210.0
 45
296.9
 46
0.7499999999999432
 47
0.6999999999999886
 48
655.0000000000014
 49
1413.000000000001
140
1229.000000000001
141
1813.000000000002
142
1.0
143
2.0
 70
  1700
 72
     1
 73
     1
 74
     4
  7
monochrome.ctb
 75
     0
 76
     0
 77
     4
 78
   300
147
1.0
148
-25.78740157480321
149
-55.62992125984258
1001
ACAD_PSEXT
1000
Samsung M2020 Series (USB001)
1000
Samsung M2020 Series
1000
USB001
1000

1070
     0
  0
PLOTSETTINGS
  5
18D8
102
{ACAD_REACTORS
330
19
102
}
330
19
100
AcDbPlotSettings
  1
DRUK A5
  2
Samsung M2020 Series (USB001)
  4
A5
  6

 40
4.2
 41
4.3
 42
4.3
 43
4.2
 44
148.0
 45
210.0
 46
0.75
 47
0.7500000000002274
 48
0.0000000000014211
 49
1413.000000000002
140
138.0000000000014
141
1613.000000000001
142
1.0
143
1.0
 70
  1700
 72
     1
 73
     0
 74
     4
  7
monochrome.ctb
 75
     0
 76
     0
 77
     4
 78
   300
147
1.0
148
-0.0000000000000559
149
-55.6299212598426
1001
ACAD_PSEXT
1000
Samsung M2020 Series (USB001)
1000
Samsung M2020 Series
1000
USB001
1000

1070
     0
  0
PLOTSETTINGS
  5
1905
102
{ACAD_REACTORS
330
19
102
}
330
19
100
AcDbPlotSettings
  1
PDF A1 POZ
  2
DWG To PDF.pc3
  4
User1431
  6

 40
5.8
 41
17.8
 42
5.8
 43
17.8
 44
841.0
 45
594.0
 46
0.6999999999999318
 47
0.7000000000000455
 48
1803.000000000001
 49
1000.0
140
2631.000000000001
141
1557.0
142
1.0
143
1.0
 70
  1700
 72
     1
 73
     0
 74
     4
  7
monochrome.ctb
 75
     0
 76
     0
 77
     4
 78
   300
147
1.0
148
-70.98425196850397
149
-39.37007874015748
1001
ACAD_PSEXT
1000
DWG To PDF.pc3
1000
HaoChenPDF
1000
Plik
1000
PDF Print Driver of GreatStar Tech
1070
     0
  0
PLOTSETTINGS
  5
1904
102
{ACAD_REACTORS
330
19
102
}
330
19
100
AcDbPlotSettings
  1
PDF A2 POZ
  2
DWG To PDF.pc3
  4
User1428
  6

 40
5.8
 41
17.8
 42
5.8
 43
17.8
 44
594.0
 45
420.0
 46
0.7000000000000455
 47
0.6999999999999886
 48
1212.000000000001
 49
1000.0
140
1793.000000000001
141
1383.0
142
1.0
143
1.0
 70
  1700
 72
     1
 73
     0
 74
     4
  7
monochrome.ctb
 75
     0
 76
     0
 77
     4
 78
   300
147
1.0
148
-47.7165354330709
149
-39.37007874015748
1001
ACAD_PSEXT
1000
DWG To PDF.pc3
1000
HaoChenPDF
1000
Plik
1000
PDF Print Driver of GreatStar Tech
1070
     0
  0
PLOTSETTINGS
  5
1903
102
{ACAD_REACTORS
330
19
102
}
330
19
100
AcDbPlotSettings
  1
PDF A3 PION
  2
DWG To PDF.pc3
  4
A3
  6

 40
5.8
 41
17.8
 42
5.8
 43
17.8
 44
297.0
 45
420.0
 46
0.6999999999999886
 47
0.6999999999999886
 48
918.0000000000007
 49
1000.0
140
1202.000000000001
141
1383.0
142
1.0
143
1.0
 70
  1700
 72
     1
 73
     0
 74
     4
  7
monochrome.ctb
 75
     0
 76
     0
 77
     4
 78
   300
147
1.0
148
-36.1417322834646
149
-39.37007874015748
1001
ACAD_PSEXT
1000
DWG To PDF.pc3
1000
HaoChenPDF
1000
Plik
1000
PDF Print Driver of GreatStar Tech
1070
     0
  0
PLOTSETTINGS
  5
1902
102
{ACAD_REACTORS
330
19
102
}
330
19
100
AcDbPlotSettings
  1
PDF A3 POZ
  2
DWG To PDF.pc3
  4
User76
  6

 40
5.8
 41
17.8
 42
5.8
 43
17.8
 44
420.0
 45
297.0
 46
0.700000000000017
 47
0.6999999999999886
 48
501.0000000000007
 49
1000.0
140
908.0000000000007
141
1260.0
142
1.0
143
1.0
 70
  1700
 72
     1
 73
     0
 74
     4
  7
monochrome.ctb
 75
     0
 76
     0
 77
     4
 78
   300
147
1.0
148
-19.72440944881893
149
-39.37007874015748
1001
ACAD_PSEXT
1000
DWG To PDF.pc3
1000
HaoChenPDF
1000
Plik
1000
PDF Print Driver of GreatStar Tech
1070
     0
  0
PLOTSETTINGS
  5
1901
102
{ACAD_REACTORS
330
19
102
}
330
19
100
AcDbPlotSettings
  1
PDF A4 PION
  2
DWG To PDF.pc3
  4
A4
  6

 40
5.8
 41
17.8
 42
5.8
 43
17.8
 44
210.0
 45
297.0
 46
0.6999999999999886
 47
0.6999999999999886
 48
294.0000000000007
 49
1000.0
140
491.0000000000007
141
1260.0
142
1.0
143
1.0
 70
  1700
 72
     1
 73
     0
 74
     4
  7
monochrome.ctb
 75
     0
 76
     0
 77
     4
 78
   300
147
1.0
148
-11.57480314960633
149
-39.37007874015748
1001
ACAD_PSEXT
1000
DWG To PDF.pc3
1000
HaoChenPDF
1000
Plik
1000
PDF Print Driver of GreatStar Tech
1070
     0
  0
PLOTSETTINGS
  5
1900
102
{ACAD_REACTORS
330
19
102
}
330
19
100
AcDbPlotSettings
  1
PDF A4 POZ
  2
DWG To PDF.pc3
  4
User77
  6

 40
5.8
 41
17.8
 42
5.8
 43
17.8
 44
297.0
 45
210.0
 46
0.6999999999999886
 47
0.6999999999999886
 48
0.000000000000739
 49
1000.0
140
284.0000000000007
141
1173.0
142
1.0
143
1.0
 70
  1700
 72
     1
 73
     0
 74
     4
  7
monochrome.ctb
 75
     0
 76
     0
 77
     4
 78
   300
147
1.0
148
-0.0000000000000291
149
-39.37007874015748
1001
ACAD_PSEXT
1000
DWG To PDF.pc3
1000
HaoChenPDF
1000
Plik
1000
PDF Print Driver of GreatStar Tech
1070
     0
  0
ACDBPLACEHOLDER
  5
F
102
{ACAD_REACTORS
330
E
102
}
330
E
  0
SCALE
  5
1D095
102
{ACAD_REACTORS
330
10C
102
}
330
10C
100
AcDbScale
 70
     0
300
1/128" = 1'-0"
140
0.0078125
141
12.0
290
     0
  0
SCALE
  5
1D771
102
{ACAD_REACTORS
330
10C
102
}
330
10C
100
AcDbScale
 70
     0
300
1:50_1_1
140
1.0
141
50.0
290
     0
  0
SCALE
  5
1D772
102
{ACAD_REACTORS
330
10C
102
}
330
10C
100
AcDbScale
 70
     0
300
1:100_1_1
140
1.0
141
100.0
290
     0
  0
SCALE
  5
1D096
102
{ACAD_REACTORS
330
10C
102
}
330
10C
100
AcDbScale
 70
     0
300
1/64" = 1'-0"
140
0.015625
141
12.0
290
     0
  0
SCALE
  5
1D773
102
{ACAD_REACTORS
330
10C
102
}
330
10C
100
AcDbScale
 70
     0
300
1:1_1
140
1.0
141
0.001
290
     0
  0
SCALE
  5
1D774
102
{ACAD_REACTORS
330
10C
102
}
330
10C
100
AcDbScale
 70
     0
300
1:2_1
140
1.0
141
0.002
290
     0
  0
SCALE
  5
1D775
102
{ACAD_REACTORS
330
10C
102
}
330
10C
100
AcDbScale
 70
     0
300
1:5_1
140
1.0
141
0.005
290
     0
  0
SCALE
  5
1D776
102
{ACAD_REACTORS
330
10C
102
}
330
10C
100
AcDbScale
 70
     0
300
1:10_1
140
1.0
141
0.01
290
     0
  0
SCALE
  5
1D777
102
{ACAD_REACTORS
330
10C
102
}
330
10C
100
AcDbScale
 70
     0
300
1:20_1
140
1.0
141
0.02
290
     0
  0
SCALE
  5
1D778
102
{ACAD_REACTORS
330
10C
102
}
330
10C
100
AcDbScale
 70
     0
300
1:50_1
140
1.0
141
0.05
290
     0
  0
SCALE
  5
1D779
102
{ACAD_REACTORS
330
10C
102
}
330
10C
100
AcDbScale
 70
     0
300
1 1/2" = 1'-0"
140
1.5
141
12.0
290
     0
  0
SCALE
  5
1D09E
102
{ACAD_REACTORS
330
10C
102
}
330
10C
100
AcDbScale
 70
     0
300
1/2" = 1'-0"
140
0.5
141
12.0
290
     0
  0
SCALE
  5
1D77A
102
{ACAD_REACTORS
330
10C
102
}
330
10C
100
AcDbScale
 70
     0
300
1:100_1
140
1.0
141
0.1
290
     0
  0
SCALE
  5
1D77B
102
{ACAD_REACTORS
330
10C
102
}
330
10C
100
AcDbScale
 70
     0
300
1:1_1_1
140
1.0
141
1.0
290
     0
  0
SCALE
  5
1D77C
102
{ACAD_REACTORS
330
10C
102
}
330
10C
100
AcDbScale
 70
     0
300
1:2_1_1
140
1.0
141
2.0
290
     0
  0
SCALE
  5
1D097
102
{ACAD_REACTORS
330
10C
102
}
330
10C
100
AcDbScale
 70
     0
300
1/32" = 1'-0"
140
0.03125
141
12.0
290
     0
  0
SCALE
  5
1D77D
102
{ACAD_REACTORS
330
10C
102
}
330
10C
100
AcDbScale
 70
     0
300
1:5_1_1
140
1.0
141
5.0
290
     0
  0
SCALE
  5
1D77E
102
{ACAD_REACTORS
330
10C
102
}
330
10C
100
AcDbScale
 70
     0
300
1:10_1_1
140
1.0
141
10.0
290
     0
  0
SCALE
  5
1D77F
102
{ACAD_REACTORS
330
10C
102
}
330
10C
100
AcDbScale
 70
     0
300
1:20_1_1
140
1.0
141
20.0
290
     0
  0
SCALE
  5
1D780
102
{ACAD_REACTORS
330
10C
102
}
330
10C
100
AcDbScale
 70
     0
300
1zu3
140
1.0
141
3.0
290
     0
  0
SCALE
  5
1D781
102
{ACAD_REACTORS
330
10C
102
}
330
10C
100
AcDbScale
 70
     0
300
1xu3
140
1.0
141
3.0
290
     0
  0
SCALE
  5
1D782
102
{ACAD_REACTORS
330
10C
102
}
330
10C
100
AcDbScale
 70
     0
300
1:3
140
1.0
141
3.0
290
     0
  0
SCALE
  5
1D09F
102
{ACAD_REACTORS
330
10C
102
}
330
10C
100
AcDbScale
 70
     0
300
3/4" = 1'-0"
140
0.75
141
12.0
290
     0
  0
SCALE
  5
1D783
102
{ACAD_REACTORS
330
10C
102
}
330
10C
100
AcDbScale
 70
     0
300
1/128" = 1'-0"_XREF
140
0.0078125
141
12.0
290
     0
  0
SCALE
  5
1D784
102
{ACAD_REACTORS
330
10C
102
}
330
10C
100
AcDbScale
 70
     0
300
1-1/2" = 1'-0"_XREF
140
1.5
141
12.0
290
     0
  0
SCALE
  5
1D785
102
{ACAD_REACTORS
330
10C
102
}
330
10C
100
AcDbScale
 70
     0
300
3" = 1'-0"_XREF
140
3.0
141
12.0
290
     0
  0
SCALE
  5
1D786
102
{ACAD_REACTORS
330
10C
102
}
330
10C
100
AcDbScale
 70
     0
300
6" = 1'-0"_XREF
140
6.0
141
12.0
290
     0
  0
SCALE
  5
1D098
102
{ACAD_REACTORS
330
10C
102
}
330
10C
100
AcDbScale
 70
     0
300
1/16" = 1'-0"
140
0.0625
141
12.0
290
     0
  0
SCALE
  5
1D787
102
{ACAD_REACTORS
330
10C
102
}
330
10C
100
AcDbScale
 70
     0
300
1'-0" = 1'-0"_XREF
140
12.0
141
12.0
290
     0
  0
SCALE
  5
1D788
102
{ACAD_REACTORS
330
10C
102
}
330
10C
100
AcDbScale
 70
     0
300
1/64" = 1'-0"_XREF
140
0.015625
141
12.0
290
     0
  0
SCALE
  5
1D789
102
{ACAD_REACTORS
330
10C
102
}
330
10C
100
AcDbScale
 70
     0
300
1/32" = 1'-0"_XREF
140
0.03125
141
12.0
290
     0
  0
SCALE
  5
1D78A
102
{ACAD_REACTORS
330
10C
102
}
330
10C
100
AcDbScale
 70
     0
300
1/16" = 1'-0"_XREF
140
0.0625
141
12.0
290
     0
  0
SCALE
  5
1D78B
102
{ACAD_REACTORS
330
10C
102
}
330
10C
100
AcDbScale
 70
     0
300
3/32" = 1'-0"_XREF
140
0.09375
141
12.0
290
     0
  0
SCALE
  5
1D0A0
102
{ACAD_REACTORS
330
10C
102
}
330
10C
100
AcDbScale
 70
     0
300
1" = 1'-0"
140
1.0
141
12.0
290
     0
  0
SCALE
  5
1D78C
102
{ACAD_REACTORS
330
10C
102
}
330
10C
100
AcDbScale
 70
     0
300
1/8" = 1'-0"_XREF
140
0.125
141
12.0
290
     0
  0
SCALE
  5
1D78D
102
{ACAD_REACTORS
330
10C
102
}
330
10C
100
AcDbScale
 70
     0
300
3/16" = 1'-0"_XREF
140
0.1875
141
12.0
290
     0
  0
SCALE
  5
1D78E
102
{ACAD_REACTORS
330
10C
102
}
330
10C
100
AcDbScale
 70
     0
300
1/4" = 1'-0"_XREF
140
0.25
141
12.0
290
     0
  0
SCALE
  5
1D78F
102
{ACAD_REACTORS
330
10C
102
}
330
10C
100
AcDbScale
 70
     0
300
3/8" = 1'-0"_XREF
140
0.375
141
12.0
290
     0
  0
SCALE
  5
1D790
102
{ACAD_REACTORS
330
10C
102
}
330
10C
100
AcDbScale
 70
     0
300
1/2" = 1'-0"_XREF
140
0.5
141
12.0
290
     0
  0
SCALE
  5
1D099
102
{ACAD_REACTORS
330
10C
102
}
330
10C
100
AcDbScale
 70
     0
300
3/32" = 1'-0"
140
0.09375
141
12.0
290
     0
  0
SCALE
  5
1D791
102
{ACAD_REACTORS
330
10C
102
}
330
10C
100
AcDbScale
 70
     0
300
3/4" = 1'-0"_XREF
140
0.75
141
12.0
290
     0
  0
SCALE
  5
1D792
102
{ACAD_REACTORS
330
10C
102
}
330
10C
100
AcDbScale
 70
     0
300
1" = 1'-0"_XREF
140
1.0
141
12.0
290
     0
  0
SCALE
  5
1D793
102
{ACAD_REACTORS
330
10C
102
}
330
10C
100
AcDbScale
 70
     0
300
5:1
140
5.0
141
1.0
290
     0
  0
SCALE
  5
1D794
102
{ACAD_REACTORS
330
10C
102
}
330
10C
100
AcDbScale
 70
     0
300
1:2.5
140
1.0
141
2.5
290
     0
  0
SCALE
  5
1D0A1
102
{ACAD_REACTORS
330
10C
102
}
330
10C
100
AcDbScale
 70
     0
300
1-1/2" = 1'-0"
140
1.5
141
12.0
290
     0
  0
SCALE
  5
1D795
102
{ACAD_REACTORS
330
10C
102
}
330
10C
100
AcDbScale
 70
     0
300
1:7.5
140
1.0
141
7.5
290
     0
  0
SCALE
  5
1D796
102
{ACAD_REACTORS
330
10C
102
}
330
10C
100
AcDbScale
 70
     0
300
1:25
140
1.0
141
25.0
290
     0
  0
SCALE
  5
1D797
102
{ACAD_REACTORS
330
10C
102
}
330
10C
100
AcDbScale
 70
     0
300
1:75
140
1.0
141
75.0
290
     0
  0
SCALE
  5
1D798
102
{ACAD_REACTORS
330
10C
102
}
330
10C
100
AcDbScale
 70
     0
300
1:150
140
1.0
141
150.0
290
     0
  0
SCALE
  5
1D799
102
{ACAD_REACTORS
330
10C
102
}
330
10C
100
AcDbScale
 70
     0
300
1:200
140
1.0
141
200.0
290
     0
  0
SCALE
  5
1D79A
102
{ACAD_REACTORS
330
10C
102
}
330
10C
100
AcDbScale
 70
     0
300
1:250
140
1.0
141
250.0
290
     0
  0
SCALE
  5
1D09A
102
{ACAD_REACTORS
330
10C
102
}
330
10C
100
AcDbScale
 70
     0
300
1/8" = 1'-0"
140
0.125
141
12.0
290
     0
  0
SCALE
  5
1D79B
102
{ACAD_REACTORS
330
10C
102
}
330
10C
100
AcDbScale
 70
     0
300
1:500
140
1.0
141
500.0
290
     0
  0
SCALE
  5
1D79C
102
{ACAD_REACTORS
330
10C
102
}
330
10C
100
AcDbScale
 70
     0
300
1:750
140
1.0
141
750.0
290
     0
  0
SCALE
  5
1D79D
102
{ACAD_REACTORS
330
10C
102
}
330
10C
100
AcDbScale
 70
     0
300
1:1000_1
140
1.0
141
1000.0
290
     0
  0
SCALE
  5
1D0A2
102
{ACAD_REACTORS
330
10C
102
}
330
10C
100
AcDbScale
 70
     0
300
3" = 1'-0"
140
3.0
141
12.0
290
     0
  0
SCALE
  5
1D79E
102
{ACAD_REACTORS
330
10C
102
}
330
10C
100
AcDbScale
 70
     0
300
1:1250
140
1.0
141
1250.0
290
     0
  0
SCALE
  5
1D79F
102
{ACAD_REACTORS
330
10C
102
}
330
10C
100
AcDbScale
 70
     0
300
1:2000
140
1.0
141
2000.0
290
     0
  0
SCALE
  5
1D7A0
102
{ACAD_REACTORS
330
10C
102
}
330
10C
100
AcDbScale
 70
     0
300
1:2500
140
1.0
141
2500.0
290
     0
  0
SCALE
  5
1D7A1
102
{ACAD_REACTORS
330
10C
102
}
330
10C
100
AcDbScale
 70
     0
300
1:5000
140
1.0
141
5000.0
290
     0
  0
SCALE
  5
1D7A2
102
{ACAD_REACTORS
330
10C
102
}
330
10C
100
AcDbScale
 70
     0
300
0.5
140
1.0
141
1.0
290
     0
  0
SCALE
  5
1D7A3
102
{ACAD_REACTORS
330
10C
102
}
330
10C
100
AcDbScale
 70
     0
300
1:35
140
1.0
141
35.0
290
     0
  0
SCALE
  5
1D7A4
102
{ACAD_REACTORS
330
10C
102
}
330
10C
100
AcDbScale
 70
     0
300
6:1
140
6.0
141
1.0
290
     0
1001
ACAD
1000
AcRTDxfName
1000
SCALE
1000
AcRTDxfName
1000
SCALE
1000
AcRTDxfName
1000
SCALE
1000
AcRTDxfName
1000
SCALE
1000
AcRTDxfName
1000
SCALE
  0
SCALE
  5
1D09B
102
{ACAD_REACTORS
330
10C
102
}
330
10C
100
AcDbScale
 70
     0
300
3/16" = 1'-0"
140
0.1875
141
12.0
290
     0
  0
SCALE
  5
1D7A5
102
{ACAD_REACTORS
330
10C
102
}
330
10C
100
AcDbScale
 70
     0
300
3:1
140
3.0
141
1.0
290
     0
1001
ACAD
1000
AcRTDxfName
1000
SCALE
1000
AcRTDxfName
1000
SCALE
1000
AcRTDxfName
1000
SCALE
1000
AcRTDxfName
1000
SCALE
1000
AcRTDxfName
1000
SCALE
  0
SCALE
  5
1D7A6
102
{ACAD_REACTORS
330
10C
102
}
330
10C
100
AcDbScale
 70
     0
300
1:2,5
140
1.0
141
2.5
290
     0
  0
SCALE
  5
1D0A3
102
{ACAD_REACTORS
330
10C
102
}
330
10C
100
AcDbScale
 70
     0
300
6" = 1'-0"
140
6.0
141
12.0
290
     0
  0
SCALE
  5
1D7A7
102
{ACAD_REACTORS
330
10C
102
}
330
10C
100
AcDbScale
 70
     0
300
1 : 1,5
140
1.0
141
1.5
290
     0
  0
SCALE
  5
1D7A8
102
{ACAD_REACTORS
330
10C
102
}
330
10C
100
AcDbScale
 70
     0
300
0,9:1
140
0.9
141
1.0
290
     0
  0
SCALE
  5
1D7A9
102
{ACAD_REACTORS
330
10C
102
}
330
10C
100
AcDbScale
 70
     0
300
0.95:1
140
0.95
141
1.0
290
     0
  0
SCALE
  5
1D7AA
102
{ACAD_REACTORS
330
10C
102
}
330
10C
100
AcDbScale
 70
     0
300
1,5 : 1
140
1.5
141
1.0
290
     0
  0
SCALE
  5
1D7AB
102
{ACAD_REACTORS
330
10C
102
}
330
10C
100
AcDbScale
 70
     0
300
1:6
140
1.0
141
6.0
290
     0
  0
SCALE
  5
1D7AC
102
{ACAD_REACTORS
330
10C
102
}
330
10C
100
AcDbScale
 70
     0
300
1:7
140
1.0
141
7.0
290
     0
  0
SCALE
  5
1D7AD
102
{ACAD_REACTORS
330
10C
102
}
330
10C
100
AcDbScale
 70
     0
300
1:9
140
1.0
141
9.0
290
     0
  0
SCALE
  5
1D7AE
102
{ACAD_REACTORS
330
10C
102
}
330
10C
100
AcDbScale
 70
     0
300
1:1_XREF_XREF
140
1.0
141
1.0
290
     0
  0
SCALE
  5
1D09C
102
{ACAD_REACTORS
330
10C
102
}
330
10C
100
AcDbScale
 70
     0
300
1/4" = 1'-0"
140
0.25
141
12.0
290
     0
  0
SCALE
  5
1D7AF
102
{ACAD_REACTORS
330
10C
102
}
330
10C
100
AcDbScale
 70
     0
300
1:1.5
140
1.0
141
1.5
290
     0
  0
SCALE
  5
1D0A4
102
{ACAD_REACTORS
330
10C
102
}
330
10C
100
AcDbScale
 70
     0
300
1'-0" = 1'-0"
140
12.0
141
12.0
290
     0
  0
SCALE
  5
1D7B0
102
{ACAD_REACTORS
330
10C
102
}
330
10C
100
AcDbScale
 70
     0
300
2.2222:1
140
2.2222
141
1.0
290
     0
  0
SCALE
  5
1D7B1
102
{ACAD_REACTORS
330
10C
102
}
330
10C
100
AcDbScale
 70
     0
300
5.5556:1
140
5.5556
141
1.0
290
     0
  0
SCALE
  5
1D09D
102
{ACAD_REACTORS
330
10C
102
}
330
10C
100
AcDbScale
 70
     0
300
3/8" = 1'-0"
140
0.375
141
12.0
290
     0
  0
SCALE
  5
1D770
102
{ACAD_REACTORS
330
10C
102
}
330
10C
100
AcDbScale
 70
     0
300
1:1000
140
1.0
141
1.0
290
     0
  0
SCALE
  5
1CD00
102
{ACAD_REACTORS
330
10C
102
}
330
10C
100
AcDbScale
 70
     0
300
1:1
140
1.0
141
1.0
290
     1
  0
SCALE
  5
1CD01
102
{ACAD_REACTORS
330
10C
102
}
330
10C
100
AcDbScale
 70
     0
300
1:2
140
1.0
141
2.0
290
     0
  0
SCALE
  5
1CD02
102
{ACAD_REACTORS
330
10C
102
}
330
10C
100
AcDbScale
 70
     0
300
1:4
140
1.0
141
4.0
290
     0
  0
SCALE
  5
1CD03
102
{ACAD_REACTORS
330
10C
102
}
330
10C
100
AcDbScale
 70
     0
300
1:5
140
1.0
141
5.0
290
     0
  0
SCALE
  5
1CD04
102
{ACAD_REACTORS
330
10C
102
}
330
10C
100
AcDbScale
 70
     0
300
1:8
140
1.0
141
8.0
290
     0
  0
SCALE
  5
1CD05
102
{ACAD_REACTORS
330
10C
102
}
330
10C
100
AcDbScale
 70
     0
300
1:10
140
1.0
141
10.0
290
     0
  0
SCALE
  5
1CD06
102
{ACAD_REACTORS
330
10C
102
}
330
10C
100
AcDbScale
 70
     0
300
1:16
140
1.0
141
16.0
290
     0
  0
SCALE
  5
1CD07
102
{ACAD_REACTORS
330
10C
102
}
330
10C
100
AcDbScale
 70
     0
300
1:20
140
1.0
141
20.0
290
     0
  0
SCALE
  5
1CD08
102
{ACAD_REACTORS
330
10C
102
}
330
10C
100
AcDbScale
 70
     0
300
1:30
140
1.0
141
30.0
290
     0
  0
SCALE
  5
1CD09
102
{ACAD_REACTORS
330
10C
102
}
330
10C
100
AcDbScale
 70
     0
300
1:40
140
1.0
141
40.0
290
     0
  0
SCALE
  5
1CD0A
102
{ACAD_REACTORS
330
10C
102
}
330
10C
100
AcDbScale
 70
     0
300
1:50
140
1.0
141
50.0
290
     0
  0
SCALE
  5
1CD0B
102
{ACAD_REACTORS
330
10C
102
}
330
10C
100
AcDbScale
 70
     0
300
1:100
140
1.0
141
100.0
290
     0
  0
SCALE
  5
1CD0C
102
{ACAD_REACTORS
330
10C
102
}
330
10C
100
AcDbScale
 70
     0
300
2:1
140
2.0
141
1.0
290
     0
  0
SCALE
  5
1CD0D
102
{ACAD_REACTORS
330
10C
102
}
330
10C
100
AcDbScale
 70
     0
300
4:1
140
4.0
141
1.0
290
     0
  0
SCALE
  5
1CD0E
102
{ACAD_REACTORS
330
10C
102
}
330
10C
100
AcDbScale
 70
     0
300
8:1
140
8.0
141
1.0
290
     0
  0
SCALE
  5
1CD0F
102
{ACAD_REACTORS
330
10C
102
}
330
10C
100
AcDbScale
 70
     0
300
10:1
140
10.0
141
1.0
290
     0
  0
SCALE
  5
1CD10
102
{ACAD_REACTORS
330
10C
102
}
330
10C
100
AcDbScale
 70
     0
300
100:1
140
100.0
141
1.0
290
     0
  0
ACAD_PROXY_OBJECT
  5
21A
102
{ACAD_REACTORS
330
219
102
}
102
{ACAD_XDICTIONARY
360
22C2F
102
}
330
219
100
AcDbProxyObject
 90
      499
 91
      515
 95
   393245
 70
     0
162
              1944
311
42134019401D001C801A4018C00D400C0011049002C0020004F002C00200051002C00200053002C00200058002C0020005A005649400F001700104018C0158018401C80080015801A4019401DC014C0194018C01D001A401BC01B8014C01D0018401C801D00124019000F8009400B4009400F001700104018C0158018401C8
311
0080015801A4019401DC014C0194018C01D001A401BC01B8011401B801900124019000F80094008000A0009400F001700104018C0158018401C80080015801A4019401DC014C018C018401B0019400800170019800800088009401CC01B8008800F8009400A4010641004E005300490033003100
161
              1301
310
B2CD000000180000000000000000A2040000006000000000000000028800000000000001220233000000180009940000006000000000000000028800000000000000A20400000060000000000000000288100000000000005C8080C0000006000400000064003100000000000000881000000000000008808340D16A22A7D9
310
0FC9F8CAE65A70A583A07E1F681C635378FA1F8CAE65A70A583A17E78C4A7F127A97E9F8
340
11
340
0
340
0
340
16
340
16
340
11
 94
        0
  0
TABLESTYLE
  5
7F
102
{ACAD_REACTORS
330
7E
102
}
102
{ACAD_XDICTIONARY
360
22EEF
102
}
330
7E
100
AcDbTableStyle
  3
Standard
 70
     0
 71
     0
 40
1.5
 41
1.5
280
     0
281
     0
  7
Standard
140
4.5
170
     2
 62
     0
 63
   257
283
     0
 90
        4
 91
        0
  1

274
    -2
284
     1
 64
     0
275
    -2
285
     1
 65
     0
276
    -2
286
     1
 66
     0
277
    -2
287
     1
 67
     0
278
    -2
288
     1
 68
     0
279
    -2
289
     1
 69
     0
  7
Standard
140
6.0
170
     5
 62
     0
 63
   257
283
     0
 90
        4
 91
        0
  1

274
    -2
284
     1
 64
     0
275
    -2
285
     1
 65
     0
276
    -2
286
     1
 66
     0
277
    -2
287
     1
 67
     0
278
    -2
288
     1
 68
     0
279
    -2
289
     1
 69
     0
  7
Standard
140
4.5
170
     5
 62
     0
 63
   257
283
     0
 90
        4
 91
        0
  1

274
    -2
284
     1
 64
     0
275
    -2
285
     1
 65
     0
276
    -2
286
     1
 66
     0
277
    -2
287
     1
 67
     0
278
    -2
288
     1
 68
     0
279
    -2
289
     1
 69
     0
  0
VISUALSTYLE
  5
F5
102
{ACAD_REACTORS
330
EF
102
}
102
{ACAD_XDICTIONARY
360
22EF1
102
}
330
EF
100
AcDbVisualStyle
  2
2dWireframe
 70
     4
177
     2
291
     0
 71
     0
176
     1
 72
     2
176
     1
 73
     1
176
     1
 90
        0
176
     1
 40
0.6
176
     1
 41
30.0
176
     1
 62
     5
 63
     7
176
     1
 74
     1
176
     1
 91
        4
176
     1
 64
     7
176
     1
 65
   257
176
     1
 75
     1
176
     1
175
     1
176
     1
 42
1.0
176
     1
 92
        0
176
     1
 66
   257
176
     1
 43
1.0
176
     1
 76
     1
176
     1
 77
     6
176
     1
 78
     2
176
     1
 67
     7
176
     1
 79
     5
176
     1
170
     0
176
     1
171
     0
176
     1
290
     0
176
     1
 93
        1
176
     1
 44
0.0
176
     1
173
     0
176
     1
  0
VISUALSTYLE
  5
F4
102
{ACAD_REACTORS
330
EF
102
}
102
{ACAD_XDICTIONARY
360
22EF3
102
}
330
EF
100
AcDbVisualStyle
  2
Basic
 70
     7
177
     2
291
     1
 71
     1
176
     1
 72
     0
176
     1
 73
     1
176
     1
 90
        0
176
     1
 40
0.6
176
     1
 41
30.0
176
     1
 62
     5
 63
     7
176
     1
 74
     0
176
     1
 91
        4
176
     1
 64
     7
176
     1
 65
   257
176
     1
 75
     1
176
     1
175
     1
176
     1
 42
1.0
176
     1
 92
        8
176
     1
 66
     7
176
     1
 43
1.0
176
     1
 76
     1
176
     1
 77
     6
176
     1
 78
     2
176
     1
 67
     7
176
     1
 79
     5
176
     1
170
     0
176
     1
171
     0
176
     1
290
     0
176
     1
 93
        1
176
     1
 44
0.0
176
     1
173
     0
176
     1
  0
VISUALSTYLE
  5
FB
102
{ACAD_REACTORS
330
EF
102
}
102
{ACAD_XDICTIONARY
360
22EF5
102
}
330
EF
100
AcDbVisualStyle
  2
Brighten
 70
    12
177
     2
291
     1
 71
     2
176
     1
 72
     2
176
     1
 73
     1
176
     1
 90
        0
176
     1
 40
0.6
176
     1
 41
30.0
176
     1
 62
     5
 63
     7
176
     1
 74
     1
176
     1
 91
        4
176
     1
 64
     7
176
     1
 65
   257
176
     1
 75
     1
176
     1
175
     1
176
     1
 42
1.0
176
     1
 92
        8
176
     1
 66
     7
176
     1
 43
1.0
176
     1
 76
     1
176
     1
 77
     6
176
     1
 78
     2
176
     1
 67
     7
176
     1
 79
     5
176
     1
170
     0
176
     1
171
     0
176
     1
290
     0
176
     1
 93
        1
176
     1
 44
50.0
176
     1
173
     0
176
     1
  0
VISUALSTYLE
  5
FF
102
{ACAD_REACTORS
330
EF
102
}
102
{ACAD_XDICTIONARY
360
22EF7
102
}
330
EF
100
AcDbVisualStyle
  2
ColorChange
 70
    16
177
     2
291
     1
 71
     2
176
     1
 72
     2
176
     1
 73
     3
176
     1
 90
        0
176
     1
 40
0.6
176
     1
 41
30.0
176
     1
 62
     5
 63
     8
176
     1
 74
     1
176
     1
 91
        4
176
     1
 64
     7
176
     1
 65
   257
176
     1
 75
     1
176
     1
175
     1
176
     1
 42
1.0
176
     1
 92
        8
176
     1
 66
     8
176
     1
 43
1.0
176
     1
 76
     1
176
     1
 77
     6
176
     1
 78
     2
176
     1
 67
     7
176
     1
 79
     5
176
     1
170
     0
176
     1
171
     0
176
     1
290
     0
176
     1
 93
        1
176
     1
 44
0.0
176
     1
173
     0
176
     1
  0
VISUALSTYLE
  5
F8
102
{ACAD_REACTORS
330
EF
102
}
102
{ACAD_XDICTIONARY
360
22EF9
102
}
330
EF
100
AcDbVisualStyle
  2
Conceptual
 70
     9
177
     2
291
     0
 71
     3
176
     1
 72
     2
176
     1
 73
     1
176
     1
 90
        0
176
     1
 40
0.6
176
     1
 41
30.0
176
     1
 62
     5
 63
     7
176
     1
 74
     2
176
     1
 91
        2
176
     1
 64
     7
176
     1
 65
   257
176
     1
 75
     1
176
     1
175
     1
176
     1
 42
40.0
176
     1
 92
        8
176
     1
 66
     7
176
     1
 43
1.0
176
     1
 76
     1
176
     1
 77
     6
176
     1
 78
     2
176
     1
 67
     7
176
     1
 79
     3
176
     1
170
     0
176
     1
171
     0
176
     1
290
     0
176
     1
 93
        1
176
     1
 44
0.0
176
     1
173
     0
176
     1
  0
VISUALSTYLE
  5
FA
102
{ACAD_REACTORS
330
EF
102
}
102
{ACAD_XDICTIONARY
360
22EFB
102
}
330
EF
100
AcDbVisualStyle
  2
Dim
 70
    11
177
     2
291
     1
 71
     2
176
     1
 72
     2
176
     1
 73
     1
176
     1
 90
        0
176
     1
 40
0.6
176
     1
 41
30.0
176
     1
 62
     5
 63
     7
176
     1
 74
     1
176
     1
 91
        4
176
     1
 64
     7
176
     1
 65
   257
176
     1
 75
     1
176
     1
175
     1
176
     1
 42
1.0
176
     1
 92
        8
176
     1
 66
     7
176
     1
 43
1.0
176
     1
 76
     1
176
     1
 77
     6
176
     1
 78
     2
176
     1
 67
     7
176
     1
 79
     5
176
     1
170
     0
176
     1
171
     0
176
     1
290
     0
176
     1
 93
        1
176
     1
 44
-50.0
176
     1
173
     0
176
     1
  0
VISUALSTYLE
  5
1E6
102
{ACAD_REACTORS
330
EF
102
}
102
{ACAD_XDICTIONARY
360
22EFD
102
}
330
EF
100
AcDbVisualStyle
  2
EdgeColorOff
 70
    22
177
     2
291
     1
 71
     2
176
     0
 72
     2
176
     0
 73
     0
176
     0
 90
        0
176
     0
 40
0.6
176
     0
 41
30.0
176
     0
 62
     5
 63
     7
176
     0
 74
     1
176
     0
 91
        4
176
     0
 64
     7
176
     0
 65
   257
176
     0
 75
     1
176
     0
175
     1
176
     0
 42
1.0
176
     0
 92
        8
176
     2
 66
     7
176
     0
 43
1.0
176
     0
 76
     1
176
     0
 77
     6
176
     0
 78
     2
176
     0
 67
     7
176
     0
 79
     5
176
     0
170
     0
176
     0
171
     0
176
     0
290
     0
176
     0
 93
        1
176
     0
 44
0.0
176
     0
173
     0
176
     0
  0
VISUALSTYLE
  5
FE
102
{ACAD_REACTORS
330
EF
102
}
102
{ACAD_XDICTIONARY
360
22EFF
102
}
330
EF
100
AcDbVisualStyle
  2
Facepattern
 70
    15
177
     2
291
     1
 71
     2
176
     1
 72
     2
176
     1
 73
     1
176
     1
 90
        0
176
     1
 40
0.6
176
     1
 41
30.0
176
     1
 62
     5
 63
     7
176
     1
 74
     1
176
     1
 91
        4
176
     1
 64
     7
176
     1
 65
   257
176
     1
 75
     1
176
     1
175
     1
176
     1
 42
1.0
176
     1
 92
        8
176
     1
 66
     7
176
     1
 43
1.0
176
     1
 76
     1
176
     1
 77
     6
176
     1
 78
     2
176
     1
 67
     7
176
     1
 79
     5
176
     1
170
     0
176
     1
171
     0
176
     1
290
     0
176
     1
 93
        1
176
     1
 44
0.0
176
     1
173
     0
176
     1
  0
VISUALSTYLE
  5
F0
102
{ACAD_REACTORS
330
EF
102
}
102
{ACAD_XDICTIONARY
360
22F01
102
}
330
EF
100
AcDbVisualStyle
  2
Flat
 70
     0
177
     2
291
     1
 71
     2
176
     1
 72
     1
176
     1
 73
     1
176
     1
 90
        2
176
     1
 40
0.6
176
     1
 41
30.0
176
     1
 62
     5
 63
     7
176
     1
 74
     0
176
     1
 91
        0
176
     1
 64
     7
176
     1
 65
   257
176
     1
 75
     1
176
     1
175
     1
176
     1
 42
1.0
176
     1
 92
        8
176
     1
 66
     7
176
     1
 43
1.0
176
     1
 76
     1
176
     1
 77
     6
176
     1
 78
     2
176
     1
 67
     7
176
     1
 79
     5
176
     1
170
     0
176
     1
171
     0
176
     1
290
     0
176
     1
 93
       13
176
     1
 44
0.0
176
     1
173
     0
176
     1
  0
VISUALSTYLE
  5
F1
102
{ACAD_REACTORS
330
EF
102
}
102
{ACAD_XDICTIONARY
360
22F03
102
}
330
EF
100
AcDbVisualStyle
  2
FlatWithEdges
 70
     1
177
     2
291
     1
 71
     2
176
     1
 72
     1
176
     1
 73
     1
176
     1
 90
        2
176
     1
 40
0.6
176
     1
 41
30.0
176
     1
 62
     5
 63
     7
176
     1
 74
     1
176
     1
 91
        0
176
     1
 64
     7
176
     1
 65
   257
176
     1
 75
     1
176
     1
175
     1
176
     1
 42
1.0
176
     1
 92
        0
176
     1
 66
   257
176
     1
 43
1.0
176
     1
 76
     1
176
     1
 77
     6
176
     1
 78
     2
176
     1
 67
     7
176
     1
 79
     5
176
     1
170
     0
176
     1
171
     0
176
     1
290
     0
176
     1
 93
       13
176
     1
 44
0.0
176
     1
173
     0
176
     1
  0
VISUALSTYLE
  5
F2
102
{ACAD_REACTORS
330
EF
102
}
102
{ACAD_XDICTIONARY
360
22F05
102
}
330
EF
100
AcDbVisualStyle
  2
Gouraud
 70
     2
177
     2
291
     1
 71
     2
176
     1
 72
     2
176
     1
 73
     1
176
     1
 90
        2
176
     1
 40
0.6
176
     1
 41
30.0
176
     1
 62
     5
 63
     7
176
     1
 74
     0
176
     1
 91
        0
176
     1
 64
     7
176
     1
 65
   257
176
     1
 75
     1
176
     1
175
     1
176
     1
 42
1.0
176
     1
 92
        0
176
     1
 66
     7
176
     1
 43
1.0
176
     1
 76
     1
176
     1
 77
     6
176
     1
 78
     2
176
     1
 67
     7
176
     1
 79
     5
176
     1
170
     0
176
     1
171
     0
176
     1
290
     0
176
     1
 93
       13
176
     1
 44
0.0
176
     1
173
     0
176
     1
  0
VISUALSTYLE
  5
F3
102
{ACAD_REACTORS
330
EF
102
}
102
{ACAD_XDICTIONARY
360
22F07
102
}
330
EF
100
AcDbVisualStyle
  2
GouraudWithEdges
 70
     3
177
     2
291
     1
 71
     2
176
     1
 72
     2
176
     1
 73
     1
176
     1
 90
        2
176
     1
 40
0.6
176
     1
 41
30.0
176
     1
 62
     5
 63
     7
176
     1
 74
     1
176
     1
 91
        0
176
     1
 64
     7
176
     1
 65
   257
176
     1
 75
     1
176
     1
175
     1
176
     1
 42
1.0
176
     1
 92
        0
176
     1
 66
   257
176
     1
 43
1.0
176
     1
 76
     1
176
     1
 77
     6
176
     1
 78
     2
176
     1
 67
     7
176
     1
 79
     5
176
     1
170
     0
176
     1
171
     0
176
     1
290
     0
176
     1
 93
       13
176
     1
 44
0.0
176
     1
173
     0
176
     1
  0
VISUALSTYLE
  5
F7
102
{ACAD_REACTORS
330
EF
102
}
102
{ACAD_XDICTIONARY
360
22F09
102
}
330
EF
100
AcDbVisualStyle
  2
Hidden
 70
     6
177
     2
291
     0
 71
     1
176
     1
 72
     2
176
     1
 73
     2
176
     1
 90
        0
176
     1
 40
0.6
176
     1
 41
30.0
176
     1
 62
     5
 63
     7
176
     1
 74
     2
176
     1
 91
        2
176
     1
 64
     7
176
     1
 65
   257
176
     1
 75
     2
176
     1
175
     1
176
     1
 42
40.0
176
     1
 92
        0
176
     1
 66
   257
176
     1
 43
1.0
176
     1
 76
     1
176
     1
 77
     6
176
     1
 78
     2
176
     1
 67
     7
176
     1
 79
     3
176
     1
170
     0
176
     1
171
     0
176
     1
290
     0
176
     1
 93
        1
176
     1
 44
0.0
176
     1
173
     0
176
     1
  0
VISUALSTYLE
  5
1E4
102
{ACAD_REACTORS
330
EF
102
}
102
{ACAD_XDICTIONARY
360
22F0B
102
}
330
EF
100
AcDbVisualStyle
  2
JitterOff
 70
    20
177
     2
291
     1
 71
     2
176
     0
 72
     2
176
     0
 73
     0
176
     0
 90
        0
176
     0
 40
0.6
176
     0
 41
30.0
176
     0
 62
     5
 63
     7
176
     0
 74
     1
176
     0
 91
        4
176
     0
 64
     7
176
     0
 65
   257
176
     0
 75
     1
176
     0
175
     1
176
     0
 42
1.0
176
     0
 92
       10
176
     2
 66
     7
176
     0
 43
1.0
176
     0
 76
     1
176
     0
 77
     6
176
     0
 78
     2
176
     0
 67
     7
176
     0
 79
     5
176
     0
170
     0
176
     0
171
     0
176
     0
290
     0
176
     0
 93
        1
176
     0
 44
0.0
176
     0
173
     0
176
     0
  0
VISUALSTYLE
  5
FD
102
{ACAD_REACTORS
330
EF
102
}
102
{ACAD_XDICTIONARY
360
22F0D
102
}
330
EF
100
AcDbVisualStyle
  2
Linepattern
 70
    14
177
     2
291
     1
 71
     2
176
     1
 72
     2
176
     1
 73
     1
176
     1
 90
        0
176
     1
 40
0.6
176
     1
 41
30.0
176
     1
 62
     5
 63
     7
176
     1
 74
     1
176
     1
 91
        4
176
     1
 64
     7
176
     1
 65
   257
176
     1
 75
     7
176
     1
175
     7
176
     1
 42
1.0
176
     1
 92
        8
176
     1
 66
     7
176
     1
 43
1.0
176
     1
 76
     1
176
     1
 77
     6
176
     1
 78
     2
176
     1
 67
     7
176
     1
 79
     5
176
     1
170
     0
176
     1
171
     0
176
     1
290
     0
176
     1
 93
        1
176
     1
 44
0.0
176
     1
173
     0
176
     1
  0
VISUALSTYLE
  5
1E5
102
{ACAD_REACTORS
330
EF
102
}
102
{ACAD_XDICTIONARY
360
22F0F
102
}
330
EF
100
AcDbVisualStyle
  2
OverhangOff
 70
    21
177
     2
291
     1
 71
     2
176
     0
 72
     2
176
     0
 73
     0
176
     0
 90
        0
176
     0
 40
0.6
176
     0
 41
30.0
176
     0
 62
     5
 63
     7
176
     0
 74
     1
176
     0
 91
        4
176
     0
 64
     7
176
     0
 65
   257
176
     0
 75
     1
176
     0
175
     1
176
     0
 42
1.0
176
     0
 92
        9
176
     2
 66
     7
176
     0
 43
1.0
176
     0
 76
     1
176
     0
 77
     6
176
     0
 78
     2
176
     0
 67
     7
176
     0
 79
     5
176
     0
170
     0
176
     0
171
     0
176
     0
290
     0
176
     0
 93
        1
176
     0
 44
0.0
176
     0
173
     0
176
     0
  0
VISUALSTYLE
  5
F9
102
{ACAD_REACTORS
330
EF
102
}
102
{ACAD_XDICTIONARY
360
22F11
102
}
330
EF
100
AcDbVisualStyle
  2
Realistic
 70
     8
177
     2
291
     0
 71
     2
176
     1
 72
     3
176
     1
 73
     0
176
     1
 90
        2
176
     1
 40
0.6
176
     1
 41
30.0
176
     1
 62
     5
 63
     7
176
     1
 74
     0
176
     1
 91
        0
176
     1
 64
     7
176
     1
 65
   257
176
     1
 75
     1
176
     1
175
     1
176
     1
 42
1.0
176
     1
 92
        8
176
     1
 66
   257
176
     1
 43
1.0
176
     1
 76
     1
176
     1
 77
     6
176
     1
 78
     2
176
     1
 67
     7
176
     1
 79
     3
176
     1
170
     0
176
     1
171
     0
176
     1
290
     0
176
     1
 93
       13
176
     1
 44
0.0
176
     1
173
     0
176
     1
  0
VISUALSTYLE
  5
1F3
102
{ACAD_REACTORS
330
EF
102
}
102
{ACAD_XDICTIONARY
360
22F13
102
}
330
EF
100
AcDbVisualStyle
  2
Shaded
 70
    27
177
     2
291
     0
 71
     2
176
     1
 72
     2
176
     1
 73
     1
176
     1
 90
        2
176
     1
 40
0.6
176
     1
 41
30.0
176
     1
 62
     5
 63
     7
176
     1
 74
     0
176
     1
 91
        4
176
     1
 64
     7
176
     1
 65
   257
176
     1
 75
     1
176
     1
175
     1
176
     1
 42
1.0
176
     1
 92
        8
176
     1
 66
   257
176
     1
 43
1.0
176
     1
 76
     1
176
     1
 77
     6
176
     1
 78
     2
176
     1
 67
     8
176
     1
 79
     3
176
     1
170
     0
176
     1
171
     0
176
     1
290
     0
176
     1
 93
        5
176
     1
 44
0.0
176
     1
173
     0
176
     1
  0
VISUALSTYLE
  5
1F2
102
{ACAD_REACTORS
330
EF
102
}
102
{ACAD_XDICTIONARY
360
22F15
102
}
330
EF
100
AcDbVisualStyle
  2
Shaded with edges
 70
    26
177
     2
291
     0
 71
     2
176
     1
 72
     2
176
     1
 73
     1
176
     1
 90
        2
176
     1
 40
0.6
176
     1
 41
30.0
176
     1
 62
     5
 63
     7
176
     1
 74
     1
176
     1
 91
       10
176
     1
 64
     7
176
     1
 65
   257
176
     1
 75
     2
176
     1
175
     1
176
     1
 42
1.0
176
     1
 92
        8
176
     1
 66
   257
176
     1
 43
1.0
176
     1
 76
     1
176
     1
 77
     6
176
     1
 78
     2
176
     1
 67
     7
176
     1
 79
     3
176
     1
170
     0
176
     1
171
     0
176
     1
290
     0
176
     1
 93
        5
176
     1
 44
0.0
176
     1
173
     0
176
     1
  0
VISUALSTYLE
  5
1EF
102
{ACAD_REACTORS
330
EF
102
}
102
{ACAD_XDICTIONARY
360
22F17
102
}
330
EF
100
AcDbVisualStyle
  2
Shades of Gray
 70
    23
177
     2
291
     0
 71
     2
176
     1
 72
     2
176
     1
 73
     3
176
     1
 90
        0
176
     1
 40
0.6
176
     1
 41
30.0
176
     1
 62
     5
 63
     7
176
     1
 74
     2
176
     1
 91
        2
176
     1
 64
     7
176
     1
 65
     7
176
     1
 75
     1
176
     1
175
     1
176
     1
 42
40.0
176
     1
 92
        8
176
     1
 66
     7
176
     1
 43
1.0
176
     1
 76
     1
176
     1
 77
     6
176
     1
 78
     2
176
     1
 67
     7
176
     1
 79
     3
176
     1
170
     0
176
     1
171
     0
176
     1
290
     0
176
     1
 93
        1
176
     1
 44
0.0
176
     1
173
     0
176
     1
  0
VISUALSTYLE
  5
1F0
102
{ACAD_REACTORS
330
EF
102
}
102
{ACAD_XDICTIONARY
360
22F19
102
}
330
EF
100
AcDbVisualStyle
  2
Sketchy
 70
    24
177
     2
291
     0
 71
     1
176
     1
 72
     2
176
     1
 73
     2
176
     1
 90
        0
176
     1
 40
0.6
176
     1
 41
30.0
176
     1
 62
     5
 63
     7
176
     1
 74
     2
176
     1
 91
        2
176
     1
 64
     7
176
     1
 65
     7
176
     1
 75
     1
176
     1
175
     1
176
     1
 42
40.0
176
     1
 92
       11
176
     1
 66
     7
176
     1
 43
1.0
176
     1
 76
     1
176
     1
 77
     6
176
     1
 78
     2
176
     1
 67
     7
176
     1
 79
     6
176
     1
170
     0
176
     1
171
     0
176
     1
290
     0
176
     1
 93
        1
176
     1
 44
0.0
176
     1
173
     0
176
     1
  0
VISUALSTYLE
  5
FC
102
{ACAD_REACTORS
330
EF
102
}
102
{ACAD_XDICTIONARY
360
22F1B
102
}
330
EF
100
AcDbVisualStyle
  2
Thicken
 70
    13
177
     2
291
     1
 71
     2
176
     1
 72
     2
176
     1
 73
     1
176
     1
 90
        0
176
     1
 40
0.6
176
     1
 41
30.0
176
     1
 62
     5
 63
     7
176
     1
 74
     1
176
     1
 91
        4
176
     1
 64
     7
176
     1
 65
   257
176
     1
 75
     1
176
     1
175
     1
176
     1
 42
1.0
176
     1
 92
       12
176
     1
 66
     7
176
     1
 43
1.0
176
     1
 76
     1
176
     1
 77
     6
176
     1
 78
     2
176
     1
 67
     7
176
     1
 79
     5
176
     1
170
     0
176
     1
171
     0
176
     1
290
     0
176
     1
 93
        1
176
     1
 44
0.0
176
     1
173
     0
176
     1
  0
VISUALSTYLE
  5
F6
102
{ACAD_REACTORS
330
EF
102
}
102
{ACAD_XDICTIONARY
360
22F1D
102
}
330
EF
100
AcDbVisualStyle
  2
Wireframe
 70
     5
177
     2
291
     0
 71
     0
176
     1
 72
     2
176
     1
 73
     0
176
     1
 90
        0
176
     1
 40
0.6
176
     1
 41
30.0
176
     1
 62
     5
 63
     7
176
     1
 74
     1
176
     1
 91
        4
176
     1
 64
     7
176
     1
 65
   257
176
     1
 75
     1
176
     1
175
     1
176
     1
 42
1.0
176
     1
 92
        0
176
     1
 66
   257
176
     1
 43
1.0
176
     1
 76
     1
176
     1
 77
     6
176
     1
 78
     2
176
     1
 67
     7
176
     1
 79
     3
176
     1
170
     0
176
     1
171
     0
176
     1
290
     0
176
     1
 93
        1
176
     1
 44
0.0
176
     1
173
     0
176
     1
  0
VISUALSTYLE
  5
1F1
102
{ACAD_REACTORS
330
EF
102
}
102
{ACAD_XDICTIONARY
360
22F1F
102
}
330
EF
100
AcDbVisualStyle
  2
X-Ray
 70
    25
177
     2
291
     0
 71
     2
176
     1
 72
     2
176
     1
 73
     1
176
     1
 90
        1
176
     1
 40
0.5
176
     1
 41
30.0
176
     1
 62
     5
 63
     7
176
     1
 74
     1
176
     1
 91
        0
176
     1
 64
     7
176
     1
 65
   257
176
     1
 75
     1
176
     1
175
     1
176
     1
 42
1.0
176
     1
 92
        8
176
     1
 66
     7
176
     1
 43
1.0
176
     1
 76
     1
176
     1
 77
     6
176
     1
 78
     2
176
     1
 67
     7
176
     1
 79
     3
176
     1
170
     0
176
     1
171
     0
176
     1
290
     0
176
     1
 93
       13
176
     1
 44
0.0
176
     1
173
     0
176
     1
  0
DICTIONARYVAR
  5
22B3D
102
{ACAD_REACTORS
330
5E
102
}
330
5E
100
DictionaryVariables
280
     0
  1
1:1
  0
DICTIONARYVAR
  5
145
102
{ACAD_REACTORS
330
5E
102
}
330
5E
100
DictionaryVariables
280
     0
  1
Standard
  0
DICTIONARYVAR
  5
84
102
{ACAD_REACTORS
330
5E
102
}
330
5E
100
DictionaryVariables
280
     0
  1
Standard
  0
DICTIONARYVAR
  5
227
102
{ACAD_REACTORS
330
5E
102
}
330
5E
100
DictionaryVariables
280
     0
  1
Metric50
  0
DICTIONARYVAR
  5
228
102
{ACAD_REACTORS
330
5E
102
}
330
5E
100
DictionaryVariables
280
     0
  1
Metric50
  0
DICTIONARYVAR
  5
5F
102
{ACAD_REACTORS
330
5E
102
}
330
5E
100
DictionaryVariables
280
     0
  1
2
  0
DICTIONARYVAR
  5
63
102
{ACAD_REACTORS
330
5E
102
}
330
5E
100
DictionaryVariables
280
     0
  1
1
  0
DICTIONARYVAR
  5
1AE
102
{ACAD_REACTORS
330
5E
102
}
330
5E
100
DictionaryVariables
280
     0
  1
0
  0
DICTIONARYVAR
  5
1AF
102
{ACAD_REACTORS
330
5E
102
}
330
5E
100
DictionaryVariables
280
     0
  1
0
  0
DICTIONARYVAR
  5
228B0
102
{ACAD_REACTORS
330
5E
102
}
330
5E
100
DictionaryVariables
280
     0
  1
1
  0
DICTIONARYVAR
  5
259
102
{ACAD_REACTORS
330
5E
102
}
330
5E
100
DictionaryVariables
280
     0
  1
0
  0
DICTIONARY
  5
22A9E
102
{ACAD_REACTORS
330
22A9D
102
}
330
22A9D
100
AcDbDictionary
281
     1
  0
DICTIONARY
  5
22AC1
102
{ACAD_REACTORS
330
22AC0
102
}
330
22AC0
100
AcDbDictionary
281
     1
  0
DICTIONARY
  5
22AC6
102
{ACAD_REACTORS
330
22AC5
102
}
330
22AC5
100
AcDbDictionary
281
     1
  0
DICTIONARY
  5
22AFC
102
{ACAD_REACTORS
330
22AFB
102
}
330
22AFB
100
AcDbDictionary
281
     1
  0
DICTIONARY
  5
22B01
102
{ACAD_REACTORS
330
22B00
102
}
330
22B00
100
AcDbDictionary
281
     1
  0
DICTIONARY
  5
22B06
102
{ACAD_REACTORS
330
22B05
102
}
330
22B05
100
AcDbDictionary
281
     1
  0
DICTIONARY
  5
22DE0
102
{ACAD_REACTORS
330
22DDF
102
}
330
22DDF
100
AcDbDictionary
281
     1
  0
DICTIONARY
  5
22DE5
102
{ACAD_REACTORS
330
22DE4
102
}
330
22DE4
100
AcDbDictionary
281
     1
  0
DICTIONARY
  5
22DEB
102
{ACAD_REACTORS
330
22DEA
102
}
330
22DEA
100
AcDbDictionary
281
     1
  0
DICTIONARY
  5
22C2D
330
21C
100
AcDbDictionary
280
     1
281
     1
  3
ACAD_XREC_ROUNDTRIP
360
22C61
  0
DICTIONARY
  5
1F9
330
ED
100
AcDbDictionary
280
     1
281
     1
  3
FBXASSET
360
1FA
  0
DICTIONARY
  5
1F7
330
EC
100
AcDbDictionary
280
     1
281
     1
  3
FBXASSET
360
1F8
  0
DICTIONARY
  5
173
330
EE
100
AcDbDictionary
280
     1
281
     1
  3
FBXASSET
360
1FB
  0
DICTIONARY
  5
22C2F
330
21A
100
AcDbDictionary
280
     1
281
     1
  3
ACAD_XREC_ROUNDTRIP
360
22C62
  0
DICTIONARY
  5
22EEF
330
7F
100
AcDbDictionary
280
     1
281
     1
  3
ACAD_ROUNDTRIP_2008_TABLESTYLE_CELLSTYLEMAP
360
22EF0
  0
DICTIONARY
  5
22EF1
330
F5
100
AcDbDictionary
280
     1
281
     1
  3
ACAD_XREC_ROUNDTRIP
360
22EF2
  0
DICTIONARY
  5
22EF3
330
F4
100
AcDbDictionary
280
     1
281
     1
  3
ACAD_XREC_ROUNDTRIP
360
22EF4
  0
DICTIONARY
  5
22EF5
330
FB
100
AcDbDictionary
280
     1
281
     1
  3
ACAD_XREC_ROUNDTRIP
360
22EF6
  0
DICTIONARY
  5
22EF7
330
FF
100
AcDbDictionary
280
     1
281
     1
  3
ACAD_XREC_ROUNDTRIP
360
22EF8
  0
DICTIONARY
  5
22EF9
330
F8
100
AcDbDictionary
280
     1
281
     1
  3
ACAD_XREC_ROUNDTRIP
360
22EFA
  0
DICTIONARY
  5
22EFB
330
FA
100
AcDbDictionary
280
     1
281
     1
  3
ACAD_XREC_ROUNDTRIP
360
22EFC
  0
DICTIONARY
  5
22EFD
330
1E6
100
AcDbDictionary
280
     1
281
     1
  3
ACAD_XREC_ROUNDTRIP
360
22EFE
  0
DICTIONARY
  5
22EFF
330
FE
100
AcDbDictionary
280
     1
281
     1
  3
ACAD_XREC_ROUNDTRIP
360
22F00
  0
DICTIONARY
  5
22F01
330
F0
100
AcDbDictionary
280
     1
281
     1
  3
ACAD_XREC_ROUNDTRIP
360
22F02
  0
DICTIONARY
  5
22F03
330
F1
100
AcDbDictionary
280
     1
281
     1
  3
ACAD_XREC_ROUNDTRIP
360
22F04
  0
DICTIONARY
  5
22F05
330
F2
100
AcDbDictionary
280
     1
281
     1
  3
ACAD_XREC_ROUNDTRIP
360
22F06
  0
DICTIONARY
  5
22F07
330
F3
100
AcDbDictionary
280
     1
281
     1
  3
ACAD_XREC_ROUNDTRIP
360
22F08
  0
DICTIONARY
  5
22F09
330
F7
100
AcDbDictionary
280
     1
281
     1
  3
ACAD_XREC_ROUNDTRIP
360
22F0A
  0
DICTIONARY
  5
22F0B
330
1E4
100
AcDbDictionary
280
     1
281
     1
  3
ACAD_XREC_ROUNDTRIP
360
22F0C
  0
DICTIONARY
  5
22F0D
330
FD
100
AcDbDictionary
280
     1
281
     1
  3
ACAD_XREC_ROUNDTRIP
360
22F0E
  0
DICTIONARY
  5
22F0F
330
1E5
100
AcDbDictionary
280
     1
281
     1
  3
ACAD_XREC_ROUNDTRIP
360
22F10
  0
DICTIONARY
  5
22F11
330
F9
100
AcDbDictionary
280
     1
281
     1
  3
ACAD_XREC_ROUNDTRIP
360
22F12
  0
DICTIONARY
  5
22F13
330
1F3
100
AcDbDictionary
280
     1
281
     1
  3
ACAD_XREC_ROUNDTRIP
360
22F14
  0
DICTIONARY
  5
22F15
330
1F2
100
AcDbDictionary
280
     1
281
     1
  3
ACAD_XREC_ROUNDTRIP
360
22F16
  0
DICTIONARY
  5
22F17
330
1EF
100
AcDbDictionary
280
     1
281
     1
  3
ACAD_XREC_ROUNDTRIP
360
22F18
  0
DICTIONARY
  5
22F19
330
1F0
100
AcDbDictionary
280
     1
281
     1
  3
ACAD_XREC_ROUNDTRIP
360
22F1A
  0
DICTIONARY
  5
22F1B
330
FC
100
AcDbDictionary
280
     1
281
     1
  3
ACAD_XREC_ROUNDTRIP
360
22F1C
  0
DICTIONARY
  5
22F1D
330
F6
100
AcDbDictionary
280
     1
281
     1
  3
ACAD_XREC_ROUNDTRIP
360
22F1E
  0
DICTIONARY
  5
22F1F
330
1F1
100
AcDbDictionary
280
     1
281
     1
  3
ACAD_XREC_ROUNDTRIP
360
22F20
  0
XRECORD
  5
22C61
102
{ACAD_REACTORS
330
22C2D
102
}
330
22C2D
100
AcDbXrecord
280
     1
102
DISPLAYNAME
  1
Metric50
102
FLAGS
 90
        0
  0
XRECORD
  5
1FA
102
{ACAD_REACTORS
330
1F9
102
}
330
1F9
100
AcDbXrecord
280
     1
 70
     1
 90
429727718
  1
D62C5603-E3A1-4AEA-B7FB-FE5D8D0755AF
310
504B03040A0000080000CC70623B3DEE336E79000000790000001B0000006175746F6465736B2D64657369676E2D7061636B6167652E786D6C3C3F786D6C2076657273696F6E3D22312E302220656E636F64696E673D227574662D3822203F3E3C666F726D6174733E3C666F726D61743E687474703A2F2F736368656D612E
310
6175746F6465736B2E636F6D2F64657369676E2D7061636B6167652F323030393C2F666F726D61743E3C2F666F726D6174733E504B0304140006080800CC70623BD486FD9CA0000000F4000000130000005B436F6E74656E745F54797065735D2E786D6C7D8EC10E82300C865F65E91D8A1E8C310C0EEA1BF002731658846E
310
D98AC1B77784ABF1D8FE5FBFBF75BBCE937A534CCEB38643598122B6FEE978D0B0485F9C41B54DDD7D022595594E1A469170414C76A4D9A4D207E29CF43ECE46F218070CC6BECC4078ACAA135ACF422C856C0E68EA1BF5669944DDD7BCDE7B1F8E415D77AECB980613C2E4AC91FC167A2B244592486606FC29C8FD7F045B9A
310
EF7053A7E60B504B0304140006080800CC70623B853B8169EB0000007C01000008000000636F72652E786D6C8D90416EC3201045AF62CDB6C206821CC7C244919D9CA01740401C94182C03558F5F9C3852BBEB6A467FFE9B197D7EFC9E1EC5975982F5AE035262288C535E5B377690E21535501C055FBC8FBF6C503839990E
310
5619041F179FE64D52DE45E362569DD7661365082642A11EB9E920A89B99642953CC8E702F67A9EE7234257977194EC9EAE275C4EABCCF5EAD5940D4AC6F0E35A568B8F43562CD7046CD199FD07E60174276A7BE677B5EADB0E0D14EEFFB6A31321A0D82627C4084204C3F096B71DD52F6819B16635EADF63F509AF53FA164
310
5DDCD1EDDD17164090FCC8732078B56691CB33A85CD7DCC40F504B0304140006080800CC70623B55019EA25F0000007C00000007000000636E782E786D6C4DCB3B0E80201045D1AD90E915ED2CF8AC45050C11660C8261F98AB1B07AC9C97D42D718D865D3E909258CFD00CCE24AC6E326A164D74DC0B4128928FF32603847
310
2BA13128B1252AC747C6BAB984FC68F0B87FE8960A5C09FE86CFB69FBA01504B0304140006080800CC70623BDBABAAF470010000D40300000C0000006662782F636F72652E786D6CC553D16E823014FD95A6AF4B694182CC941A83FA05FB810A9511A125A5257EFE2E82712ECEB8A7F100CD39F7F69E734AF9FADC366850B6
310
AF8DCE7018308C942E4C59EB2AC3DE1D498AD15A706B8CFB56869196ADCAF00863C12B6B7C374385D14E6907A836A59A41D9F7CA615434B0C8705F7CAA5606D23BA8E84F41278B93AC54100640439DE0BDB320004D43C63716C7C399D30917DCFBBA9CD9BA8469F5B156168B24CED3F7248AC8769F27244EB73B92EED8862C
310
B7F13E0C179B3C8F979C8ECD82BBBABDAA2BAC924E9558448CBD9330242CFA08E3154B5651FCC6D215639C8EE5774DBE2B5F6CF2B5768B68963BB5F5588420E442FC700B1139D4CB01F450C1E918227C2E09DF070D8140C84E1E9AAB8F1340832A9CB13130A5F1376A908D57309505ECF2A0DF179C4E9D30F5B239B87E3823
310
7A79C6F31DE1A8A5AEC08474B03C7837EAE4938639B44E5932B833D2C6B6B279CDC613877FA26EE21F4A2A4C63EC7F29A2F301D1F9F7A0E37D145F504B0304140006080800CC70623B9C113CC27E0000009D0000000B0000006662782F636E782E786D6C4DCCDF0A83201C86E15B91DFB94BFB330DD428C8FB886521330DA7
310
6397BF1A1DECE883878F57749FCDA1B7892F1BBC047A23808C7F84D9FA55424E0BE6803A256208E9EF06C84F9B91703228B1C690F78B66B34CD9A5439DF5CF0BFBF65E35BCA1B8D6A5C6F540381E886698B5741C695F9503EBA150A2F8958E3DC3EA0B504B0304140006080800CC70623B7DF2F77C2A010000120200003100
310
00006662782F41393633353835312D344632462D344230382D423046372D3739314545314133324237412F636F72652E786D6C8D51DB8EC22014FC15C2939B0D2DB4B45643319AE817EC0F6041255A68B86CFCFC856D4D76DF7CE190393373060EDB3DC707F856CE6B6B7A480A0C81328395DA5C7B18C3057510EC3873D686
310
3F34088C18550F330C39BB3A1BA7051AAC09CA84841A2BD5020AEF55806078A44B0FFD7053A328440C89E1EFC52486BBB8AA8214A99D789CF9E05200300FC927E4FB4D5B375D43103D5527440FB843077C5AA3F5861C8F645F5787F59E95B390B318B55CE45AA638FAA2957BD7248B390B7A7CC51F9C124149C82B8C378810
310
84AB2F42B7B8DD56F413775B8C5999E9FF4471926F8AA236A1AE96B8B3CC434E5839373893369E1FAF30EA395917409EB7F26AF8801C171837A4A6AC9C89E9F9C9B1A58BA30FD6A5EF5DDDCF894B9AD9B6A59C957943A9FCAE2FD5BC4DFE03504B0304140006080800CC70623BAD7543B64E01000033030000300000006662
310
782F41393633353835312D344632462D344230382D423046372D3739314545314133324237412F636E782E786D6CD593CD6EC32010845F0571AD6CE3D48AD20813A9873E410FBD12D82434182C7EAAE6EDBB2424CD25871E7B41D6EC30B3FA84F9E67BB2E40B4234DE8DB46F1925E094D7C6ED479AD3AE5951B2113C789FEE
310
6C943839C1488B4C05DF079FE72A69D8C96C13AAD6B8631503449F83828872B949AC57D26200B826A308D316B4064D6E46FCDA41C05550DC9E483A00797BFD207EFB092A45DE9514C1BBD22178396BD39D891265658C238DEA00936C654E5E433CB65A26D9F6EDB5EBC14EBF49A45CB856E66048291F6939A9A81BB5C89177
310
38143CA680F4AA299D66A042CEB3354A2684DC9D8D178FE0D9B8B41CAAD720F880EE7EF93C0C18769E099ECC04D5A102C8049A8A05632F4DDF376CF1DE0F6BB65C2F8627B65A33C6BB62177CEBBDAD973006829F89F22E814B54F4BC2BE347F8AA8F681390B50FA73F804400B5F542E796F19FF974E7F78DB802FE05E20750
310
4B0304140006080800CC70623BE75B7789680500003C100000340000006662782F41393633353835312D344632462D344230382D423046372D3739314545314133324237412F6F626A656374732E786D6CAD575B8F9B3818FD2B887D06C22499CB8AA1CA655245D5B455A356FB305264C061D8018C6C3393D95FBFC7600890
310
A4CD5EF210B0B1BFEBF98E3F7B1FF6596ABC522E1296DF9BAE3D320D9A872C4AF2F8DE2CE5CEBA358D0FBEC719939D65A691938CDE9B6ADAF4BD98B3B2D05311DD91329583D9D5FC0F438434A7A611A644887B5384CF34233629258BA878B12322891DEFF6B66BD70BFB62634E8AE781D082709A4B588AF91C528CDA28B73F
310
1C998EEF39EABBEFA97FBD6A7C7E9553F9D3D79FE442923C3C523610337627CB87ABE99D359D4CC6D6E4FACAB5E6ABF9D2726FC6A3C5F56271377BB88362213924694B38DD99FE47C48627A1E7D49F5A8BB5E1A74C0A599ED3B0F21F1E56366B89112D681E218F0915D0D6F17AD41FBA2A369DCF6335D62ABBD39779D5DDD1
310
11D4D8DE3CBB96B2E04FB8202E41051754A1AA8E8F76B4C6DFE810B580B1547F4B84911149794252234D024EF8BBE963A95AE27B3D310A9D5C215C7960FAEE415ED75694C6AFB17BCACA5D99A60A9AA65F217B0BFC53292ACB92BF283FAD0D3621576592CB5BED907C2FA8E9DF794E35E97BEA31BED21FEB401ABB94C44839
310
DCACBF0E1C5DA8DA5B2F4DFFD32AD86F543D9E565E7056502E157C00AD2671CD534549AB752FCA9CDA00677A313F04E51B22FF19E57B300579E3C97EB29F682D92935CEC18CF901B7B54FD8C51F362B56FC72FE0B3C1EAE335EDCCBF5AEC39ADB17DC238973F804BA5E6F6BFE7AF1FB32E523BE9F3BD571418E3631DCA4D48
310
5250CF639223210A9446CA30052EDF057BD35F8329C1ECD84552BF0DC8D18BE7BCE23BFE6BD960AB4A7DE79923A103BEBD80F911CBAA2C60DB19B01CF164A5583B772EE6D3FFA56666CBCDA74DC97724A48F9A58967497E489C4D979006FD7A05E227A1EBDD0F737C623387A9C844D3709995625106D157315F8B8392CD4E0
310
A0B9A720C4BE9829CEF37EA1E13111214D53925356365ADA634861B52519DD27A00AEB808EAF0628E6F435519D446F45CF2C9CF5214F0A15B2F6D06B79DA3EE3CBF7F56780D2F4E7EF73A0F5E5B02A38D07DC852C6B7C1FBB6664213E0C39E3EBA7FF4E1AD23EA2829407C85E586727488B751B2DB9502BC7B228A3FD68B6E
310
A65A22397E690AA8D158D7E404EC8CDA235CC3B7D1898680131CEC2CDF2638C65196279577750F15884AEE19F94199155B92B13297978469D4F8D358DF0AEF7631E28DC8F0D9F437D5D39A83B2231A1D52D543813A824EF8D44BCFF2FA6A31BD1E8DAD87F1CCB526B3879935BF59CDADD5C37479BB1CDD4CA7B3556B516589
310
EF352754B706114D9C885EC9131DE6EFEB43D99AFE2391C2F958179413D7CFEF6B1B6DB1E7600F00DE6E5C67454A339A4BA2E0FBA85ED26F045D454F463DBFCE484C2F90F2E5E3666003662ED8F755951A7D1BECD5B30B550B2785C8E7320B7292A4838DDA71BBC863ED7613CAF659337A3354231D4FF4A182A54904C2898C
310
98B28C4AD0CE056CCF332A80986E571EE9DBC305BB5FEB7E509220A58D25CF042D712A806AC0AD0C657FDEF80D2D9CEAA2EE4D1C76F60BFE74219A06527D6F82DF6412526107381E55E353090704D085B52408A8913C4ED159D79BDA71BB4BC506F4831350EB6F975CD22D69BF7AC49B91A2C0A9DDA3D5CA36AD20FC478E37
310
E61844E2352865EBCB61A275A65283CAAA9DD27703B4102F5AF51EF5F573B75CBB5AD38BC845F7A49F82A0966A49C2E3EA5EA0ECD326CD965F1DB402C6FA8B51A4658C5C5E2EC9E214602E55810345408596591009A82E7E7FFACA19EEA299B14A0081A705CB3296EBC14CDF658DCD336EA6D1136881AAEB87B81AB9EE53D5
310
F5EB8BC8362082DA24122F98680A4E7930C01A0079749CEA14382A0783E5EBA5A10F8C098456A03D6A4AEB6BB881E2513747552A5DB22C7EDAF83BD5528081A365F7FF06504B0304140006080000CC70623B000000000000000000000000350000006662782F41393633353835312D344632462D344230382D423046372D37
310
39314545314133324237412F76657274696365732E62696E504B0304140006080800CC70623BF270F1330600000004000000360000006662782F41393633353835312D344632462D344230382D423046372D3739314545314133324237412F747269616E676C65732E62696E636660600000504B0304140006080000CC7062
310
3B000000000000000000000000370000006662782F41393633353835312D344632462D344230382D423046372D3739314545314133324237412F617474726962757465732E62696E504B0304140006080800CC70623B08DA0BD19000000041010000360000006662782F41393633353835312D344632462D344230382D4230
310
46372D3739314545314133324237412F6469726563746F72792E786D6C858F410AC3201045AF22B36F53E9A60B35CBEEBAE80D244E44489C6234F4F835464A48035D0DF398FF9F8AF63D0E6CC63039F212F8F9020C7D47C6792B21C5FE7403D62A1188E2E60C98D7234A5830286103A55745067B9D86B8A3CF9C7F90C11DE6
310
07FB144396D7B6A82D282E9A152AD114D5EF2CB866EEE831B8EEA07A7BB5A8D7D61A2BAAEB7FD5F70921FF497D00504B0304140006080800CC70623BEDD1DC58FD000000A00100003B0000006662782F41393633353835312D344632462D344230382D423046372D3739314545314133324237412F7265736F75726365732F
310
636F72652E786D6C8D504B6E833010BD0A9A6D65B00922041947112427E8052C33A156828DFCA97AFC9A40A576D7CDCCE87D344F8F9FBFE667F689CE6B6B3A6039850C8DB2A336530731DC4903D95970676DF82583CCC8193B5861107C72362E3BA4AC096842428D1D7107A5F7182053CF7474E0D507CE32973124857FE48B
310
540F3961CEF244279DE03EB81420DB9EAC1384436FA353E879B1B182C7A8C75DA3C7F453DF353A1075D537A7BA6464B8F535A99AE14A9A2BBD90E350DD183B5CFABE3AF262350B1EF4FC9351399401471025A527C218A1E53BAB5A5AB765F5469B96525EACF23FA6B88CFF34456DC2A1DCE36E360F82A5202F42F062ED2BAD
310
579969AFDD8A6F504B010214000A0000080000CC70623B3DEE336E79000000790000001B00000000000000000000000000000000006175746F6465736B2D64657369676E2D7061636B6167652E786D6C504B01021400140006080800CC70623BD486FD9CA0000000F40000001300000000000000000000000000B20000005B
310
436F6E74656E745F54797065735D2E786D6C504B01021400140006080800CC70623B853B8169EB0000007C010000080000000000000000000000000083010000636F72652E786D6C504B01021400140006080800CC70623B55019EA25F0000007C000000070000000000000000000000000094020000636E782E786D6C504B
310
01021400140006080800CC70623BDBABAAF470010000D40300000C00000000000000000000000000180300006662782F636F72652E786D6C504B01021400140006080800CC70623B9C113CC27E0000009D0000000B00000000000000000000000000B20400006662782F636E782E786D6C504B01021400140006080800CC70
310
623B7DF2F77C2A010000120200003100000000000000000000000000590500006662782F41393633353835312D344632462D344230382D423046372D3739314545314133324237412F636F72652E786D6C504B01021400140006080800CC70623BAD7543B64E010000330300003000000000000000000000000000D2060000
310
6662782F41393633353835312D344632462D344230382D423046372D3739314545314133324237412F636E782E786D6C504B01021400140006080800CC70623BE75B7789680500003C10000034000000000000000000000000006E0800006662782F41393633353835312D344632462D344230382D423046372D3739314545
310
314133324237412F6F626A656374732E786D6C504B01021400140006080000CC70623B0000000000000000000000003500000000000000000000000000280E00006662782F41393633353835312D344632462D344230382D423046372D3739314545314133324237412F76657274696365732E62696E504B01021400140006
310
080800CC70623BF270F133060000000400000036000000000000000000000000007B0E00006662782F41393633353835312D344632462D344230382D423046372D3739314545314133324237412F747269616E676C65732E62696E504B01021400140006080000CC70623B0000000000000000000000003700000000000000
310
000000000000D50E00006662782F41393633353835312D344632462D344230382D423046372D3739314545314133324237412F617474726962757465732E62696E504B01021400140006080800CC70623B08DA0BD1900000004101000036000000000000000000000000002A0F00006662782F41393633353835312D344632
310
462D344230382D423046372D3739314545314133324237412F6469726563746F72792E786D6C504B01021400140006080800CC70623BEDD1DC58FD000000A00100003B000000000000000000000000000E1000006662782F41393633353835312D344632462D344230382D423046372D3739314545314133324237412F7265
310
736F75726365732F636F72652E786D6C504B0506000000000E000E0080040000641100000000
  0
XRECORD
  5
1F8
102
{ACAD_REACTORS
330
1F7
102
}
330
1F7
100
AcDbXrecord
280
     1
 70
     1
 90
429727718
  1
30362254-06B7-45E0-A893-8CFA70E3D6BC
310
504B03040A0000080000CC70623B3DEE336E79000000790000001B0000006175746F6465736B2D64657369676E2D7061636B6167652E786D6C3C3F786D6C2076657273696F6E3D22312E302220656E636F64696E673D227574662D3822203F3E3C666F726D6174733E3C666F726D61743E687474703A2F2F736368656D612E
310
6175746F6465736B2E636F6D2F64657369676E2D7061636B6167652F323030393C2F666F726D61743E3C2F666F726D6174733E504B0304140006080800CC70623BD486FD9CA0000000F4000000130000005B436F6E74656E745F54797065735D2E786D6C7D8EC10E82300C865F65E91D8A1E8C310C0EEA1BF002731658846E
310
D98AC1B77784ABF1D8FE5FBFBF75BBCE937A534CCEB38643598122B6FEE978D0B0485F9C41B54DDD7D022595594E1A469170414C76A4D9A4D207E29CF43ECE46F218070CC6BECC4078ACAA135ACF422C856C0E68EA1BF5669944DDD7BCDE7B1F8E415D77AECB980613C2E4AC91FC167A2B244592486606FC29C8FD7F045B9A
310
EF7053A7E60B504B0304140006080800CC70623B1EC5D7A3EB0000007C01000008000000636F72652E786D6C8D90416EC3201045AF82665B6103C6756C6122AB4D4ED00B204C5C94182C03558F5F9C3852BBEB6A467FFE9B197D71FC9E6FE8CBACC17AD7032D0820E3B41FAD9B7A48F1820F808E52ACDEC75F36404ECDA687
310
4D0629A6D5A76597B477D1B89855E747B38B2A041301E95B6E7A08FAD3CCAA50296647B8168BD2573599823EBB0CA76447F43862C7BCCF5EAC59410E4DDD9C7973C2755553CCCFA4C603E3040F1565ED3B1FDE4E432BCA0D9622DAF9795FAF464533826484B498524CD807E51D79ED187F21878E10516EF63F505AC67F42C9
310
BA58B1FDDD071640D2FCC87D2045B96591CB3DA85CB7DCE40F504B0304140006080800CC70623B55019EA25F0000007C00000007000000636E782E786D6C4DCB3B0E80201045D1AD90E915ED2CF8AC45050C11660C8261F98AB1B07AC9C97D42D718D865D3E909258CFD00CCE24AC6E326A164D74DC0B4128928FF32603847
310
2BA13128B1252AC747C6BAB984FC68F0B87FE8960A5C09FE86CFB69FBA01504B0304140006080800CC70623B8C9102E971010000D40300000C0000006662782F636F72652E786D6CC5535B6E833010BC8AE5DF0A6C08340F1947A84D4ED00B38C6A128602363A31CBFCB234A53A551FA553EC09AD9F5CE8C31DB9E9B1AF5CA
310
7695D1198E428A91D2D214952E33ECDD315861B4E5CC1AE3BE9561A445A3323CC098B3D21ADFCE9034DA29ED00D5A6503328BA4E398C640D8B0C77F253352214DE4145770A5B214FA2546114020D759C75CE8200340D19DE981F0F6746269C33EFAB6266AB02A655C74A59CCF365BADC27CB5D902ED22848F6340DF238A141
310
BE88E2F57B92BFEDF23523433367AE6A2EEAA455C2A902F398D2751045018D3FA264435F3771F242571B4A1919CA6F9A7C5B3CD9E42BED16F12C776AEB308F40C848FC700B1139D4891EF410CEC810227CC6846F8386402064270EF5C5C709A05E49676C024C61FC95EA45ED154CA5211D1FF4FB8291A913A68E9B83EBBB33
310
E2A7673CDE118E5AE8124C0807CB8377834E366998436B950D7A7746DAD846D4CFD978E0F04FD455FC5D49D2D4C6FE9722321F10997F0F32DC47FE05504B0304140006080800CC70623BFFEA85907E0000009D0000000B0000006662782F636E782E786D6C4DCCD10A83201886E15B91FFDC95D95A811AB6F23E625948A6C3
310
E9D8E5AF46073BFAE0E1E365ED67B3E8ADC3CB78C7815C7240DA3DFC64DCC221C519D7805AC182F7F1EF06C88D9BE6703008B6049F9E274D7A1E938DBB5AE3D6131B2589BA0D3D965551E0B2EA732C9B9A624AAEB41E3A557677029960D9AFB4EF11165F504B0304140006080800CC70623B4FEEA4082C0100001202000031
310
0000006662782F39464131463745442D413632322D343644302D413938332D3331353338454246344243312F636F72652E786D6C8D515B6EC32010BC0AE2AB55850DD871ED0813254D72825EC00192A2C460F1A872FC42ED48ED5F7E00CDCECCCEB26C731F6FE05B39AFADE921293004CA082BB5B9F43086336A21D870E6AC
310
0D7F68109861543DCC30E4ECE26C9C164858139409093556AA051CBC570102714B8F1E7AF1A5C6A11862480C7F2DA6415C878B2A4891CA89C7990F2E050073937C42DE1DB7E4F87ED8A36D4329AA9B3D46DBAEAD504556557BD81DEBDD0761E52CE42C462D17B996298E3E6BE59E35C962CE821E1FF18553435012728A7187
310
0841987E927A8D9B35ADDF70BBC6989599FE4F1427F9A4286A132ABAC49D651EF234CD5CE04CDA78BA3DC2A8FB645D00B9DF8B57E215725C60BCA2A463E54C4CE327C7A65E1C7DB02E7DEFCBF594B864C5CA6CDBD49C957943E9FA5D5FBAF336F90F504B0304140006080800CC70623BAD7543B64E01000033030000300000
310
006662782F39464131463745442D413632322D343644302D413938332D3331353338454246344243312F636E782E786D6CD593CD6EC32010845F0571AD6CE3D48AD20813A9873E410FBD12D82434182C7EAAE6EDBB2424CD25871E7B41D6EC30B3FA84F9E67BB2E40B4234DE8DB46F1925E094D7C6ED479AD3AE5951B2113C
310
789FEE6C943839C1488B4C05DF079FE72A69D8C96C13AAD6B8631503449F83828872B949AC57D26200B826A308D316B4064D6E46FCDA41C05550DC9E483A00797BFD207EFB092A45DE9514C1BBD22178396BD39D891265658C238DEA00936C654E5E433CB65A26D9F6EDB5EBC14EBF49A45CB856E66048291F6939A9A81BB5
310
C8917738143CA680F4AA299D66A042CEB3354A2684DC9D8D178FE0D9B8B41CAAD720F880EE7EF93C0C18769E099ECC04D5A102C8049A8A05632F4DDF376CF1DE0F6BB65C2F8627B65A33C6BB62177CEBBDAD973006829F89F22E814B54F4BC2BE347F8AA8F681390B50FA73F804400B5F542E796F19FF974E7F78DB802FE05
310
E207504B0304140006080800CC70623B16AB87BA640500003C100000340000006662782F39464131463745442D413632322D343644302D413938332D3331353338454246344243312F6F626A656374732E786D6CAD575B6FA33818FD2B887DE6924B3BED8A326A92B68A663B534DD4D13E548A0C38942D60649B369D5FBFC7
310
600890A493BDE42160637FD7F31D7FF63E6FB3D478A55C242CBF3247B66B1A340F5994E4F19559CA8D75611A9F7D8F33263BCB4C232719BD32D5B4E97B316765A1A722BA21652A07B3B7B33F0D11D29C9A46981221AE4C113ED38CD8A4942CA2E2C58E882476BCD9DA23BB5ED8171B73523C0F841684D35CC252CCE79062D4
310
468DFA43D7747CCF51DF7D4FFDEB5593E3AB9CCA9FBEFE241792E4E19EB28198C968BAB8199F5D5A67D3E9C49A9E8F47D6EC76B6B0469F26EEFC7C3EBFBCBEB98462213924694B38DD98FE1D62C393D073EA4FADC5DAF04326852CCF6958F90F0F2B9BB5C48816348F90C7840A68EB78EDF68723159BCEE7891A6B95DDE9D3
310
BCEAEEE8086A6C6F9E5D4B59F0175C10A7A0820BAA5055C7473B5AE3CFDD452D602CD5DF12616444529E90D448938013FE6EFA58AA96F85E4F8C42275708571E98FE6827AF6B2B4AE3D7D83D64E5A64C53054DD3AF90BD06FEA9149565C94FCA0F6B834DC85599E4F2423B24DF0B6AFA979E534DFA9E7A4CC6FA631D486393
310
921829879BF5D781A373557BCB85E97FB90DB62B558F8795179C15944B051F40AB495CF35451D26A4727654E6D8033BD98EF82F21D91FF8AF2DD9982BCF1643BDD4EB516C9492E368C67C88DED563FC36D5EACF66DFF057C3658BDBFA69DF9578B3DA735B64F18C7F20770A9D45CFCF7FCF563D6456A277DBEF78A02637CA2
310
43B90A490AEAB94F72244481D24819A6C0E59B606BFA4B3025981DBB48EAB701D97BF19C577CC77F2D1B6C55A9EF3C732474C0B727303F625995056C3B02963D9EAC146BE78EC5FCEC7FA999EBC5EACBAAE41B12D27B4D2C0BBA49F244E2ECDC81B76B502F113D8F5EE8FB1BE3111CDD4FC2AA9B844CAB1288B68AB90A7CDC
310
1C166AB0D3DC5310625FCC14E779BFD0709F8890A629C9292B1B2DED31A4B0DA928CEE135085754027E3018A397D4D5427D15BD1330B677DC8934285AC3DF45A9EB68FF8F2B8FC0A509AFEECFD0FF2DE25CC6047F7214B195F07EFEB9A094D800F7BFAE8FED187B78EA8A3A400F115961BCAD1215E47C966530AF0EE8128FE
310
58CEBB996A8964FFA529A046635D9353B0336A8F700DDF46271A024E70B0B37C9DE01847591E54DED53D54202AB947E4076556AC49C6CA5C9E1226B7F1A7B1BE15DEED62C41B91E1B3E9AFAAA735036547343A925075041DF0A9979E893B391F8FCFA6967B3EFB644DCF6E5CEBFAE272625DCC6FAF3FB93793C5F90CE1EF57
310
407342756B10D1C489E8953CD1617E5CEECAD6F4EF8914CE5D5D504E5C3F1F9736DA62CFC11E00BCDDB8CC8A9466349744C1F75EBDA4DF09BA8A9E8C7A7E9991989E20E5DBDD6A6003664ED8F7A04A8DBE0DF6EAD9B9AA858342E47399053949D2C146EDB85DE4B176BB0965FBAC19BD19AA918E27FA50C1D22402E144464C
310
59462568E704B6E71915404CB72B8FF4EDE184DDAF753F284990D2C6926782963815403548A70C657FDEF80D2D9CEAA2AE4C1C76F60BFE74219A06527D6582DF6412526107381E55E353090704D085B52408D0933C4ED159D79BDA71BB4BC506F4831350EB6F979CD22D69BF7AC49B91A2C0A9DDA3D5CA36AD20FC478E37E6
310
1844E2352865EBCB6EA275A652E3836BE04EFB400BF1A2556F515F1FBB35B2AB35BD889C744FFA1004B5544B121E57F70215746DD2F5E2C1412B602CBF19455AC6C8E5E9922C4E01E65215385004546899059180EAFCF7A707CE7017CD8CDB0410789AB32C63B91E5CEBBBACB17AC6CD347A022D5075FD106377347AAABA7E
310
7D11590744509B44E205134DC1290F06580320F78E537D3D73540E06CB970B431F185308AD40BBD794D6D77003C5A36E8EAA54BA64597CD8F83BD552A080A365F7FF06504B0304140006080000CC70623B000000000000000000000000350000006662782F39464131463745442D413632322D343644302D413938332D3331
310
353338454246344243312F76657274696365732E62696E504B0304140006080800CC70623BF270F1330600000004000000360000006662782F39464131463745442D413632322D343644302D413938332D3331353338454246344243312F747269616E676C65732E62696E636660600000504B0304140006080000CC70623B
310
000000000000000000000000370000006662782F39464131463745442D413632322D343644302D413938332D3331353338454246344243312F617474726962757465732E62696E504B0304140006080800CC70623B08DA0BD19000000041010000360000006662782F39464131463745442D413632322D343644302D413938
310
332D3331353338454246344243312F6469726563746F72792E786D6C858F410AC3201045AF22B36F53E9A60B35CBEEBAE80D244E44489C6234F4F835464A48035D0DF398FF9F8AF63D0E6CC63039F212F8F9020C7D47C6792B21C5FE7403D62A1188E2E60C98D7234A5830286103A55745067B9D86B8A3CF9C7F90C11DE607
310
FB144396D7B6A82D282E9A152AD114D5EF2CB866EEE831B8EEA07A7BB5A8D7D61A2BAAEB7FD5F70921FF497D00504B0304140006080800CC70623B0D6EF93BFE000000A00100003B0000006662782F39464131463745442D413632322D343644302D413938332D3331353338454246344243312F7265736F75726365732F63
310
6F72652E786D6C8D50596E833010BD0A9ADFCA60B334011947A8694ED00B586642AC041B79A97AFC9A40A5F6AF3F33A3B7689E1E3F7DCD8FEC139DD7D6F4C0720A191A65476DA61E62B892236427C19DB5E1970C322367EC618541F0C9D9B8EC90B226A009093576C41D94DE63804C3DD2D18357379C652E63480A7FCF17A9
310
EE72C29CE5894E3AC17D702940B63D59270887DE46A7D0F36263058F518FBB468FE9A7BE6A7420864373B8D4873369AA8691FA421B3294352543C5CAF65C0F6FEF43CB8BD52C78D0F34F46E550061C419494B6843142CB0F5677F4B52BEB177AEC28E5C52AFF638ACBF84F53D42654E51E77B379102C05791282176B5F693D
310
CB4C7BED567C03504B010214000A0000080000CC70623B3DEE336E79000000790000001B00000000000000000000000000000000006175746F6465736B2D64657369676E2D7061636B6167652E786D6C504B01021400140006080800CC70623BD486FD9CA0000000F40000001300000000000000000000000000B20000005B
310
436F6E74656E745F54797065735D2E786D6C504B01021400140006080800CC70623B1EC5D7A3EB0000007C010000080000000000000000000000000083010000636F72652E786D6C504B01021400140006080800CC70623B55019EA25F0000007C000000070000000000000000000000000094020000636E782E786D6C504B
310
01021400140006080800CC70623B8C9102E971010000D40300000C00000000000000000000000000180300006662782F636F72652E786D6C504B01021400140006080800CC70623BFFEA85907E0000009D0000000B00000000000000000000000000B30400006662782F636E782E786D6C504B01021400140006080800CC70
310
623B4FEEA4082C0100001202000031000000000000000000000000005A0500006662782F39464131463745442D413632322D343644302D413938332D3331353338454246344243312F636F72652E786D6C504B01021400140006080800CC70623BAD7543B64E010000330300003000000000000000000000000000D5060000
310
6662782F39464131463745442D413632322D343644302D413938332D3331353338454246344243312F636E782E786D6C504B01021400140006080800CC70623B16AB87BA640500003C1000003400000000000000000000000000710800006662782F39464131463745442D413632322D343644302D413938332D3331353338
310
454246344243312F6F626A656374732E786D6C504B01021400140006080000CC70623B0000000000000000000000003500000000000000000000000000270E00006662782F39464131463745442D413632322D343644302D413938332D3331353338454246344243312F76657274696365732E62696E504B01021400140006
310
080800CC70623BF270F133060000000400000036000000000000000000000000007A0E00006662782F39464131463745442D413632322D343644302D413938332D3331353338454246344243312F747269616E676C65732E62696E504B01021400140006080000CC70623B0000000000000000000000003700000000000000
310
000000000000D40E00006662782F39464131463745442D413632322D343644302D413938332D3331353338454246344243312F617474726962757465732E62696E504B01021400140006080800CC70623B08DA0BD190000000410100003600000000000000000000000000290F00006662782F39464131463745442D413632
310
322D343644302D413938332D3331353338454246344243312F6469726563746F72792E786D6C504B01021400140006080800CC70623B0D6EF93BFE000000A00100003B000000000000000000000000000D1000006662782F39464131463745442D413632322D343644302D413938332D3331353338454246344243312F7265
310
736F75726365732F636F72652E786D6C504B0506000000000E000E0080040000641100000000
  0
XRECORD
  5
1FB
102
{ACAD_REACTORS
330
173
102
}
330
173
100
AcDbXrecord
280
     1
 70
     0
 90
1673772943
  1
ECE7A1D2-D628-4531-984C-D00F80459256
310
504B03040A0000080000CC70623B3DEE336E79000000790000001B0000006175746F6465736B2D64657369676E2D7061636B6167652E786D6C3C3F786D6C2076657273696F6E3D22312E302220656E636F64696E673D227574662D3822203F3E3C666F726D6174733E3C666F726D61743E687474703A2F2F736368656D612E
310
6175746F6465736B2E636F6D2F64657369676E2D7061636B6167652F323030393C2F666F726D61743E3C2F666F726D6174733E504B0304140006080800CC70623BD486FD9CA0000000F4000000130000005B436F6E74656E745F54797065735D2E786D6C7D8EC10E82300C865F65E91D8A1E8C310C0EEA1BF002731658846E
310
D98AC1B77784ABF1D8FE5FBFBF75BBCE937A534CCEB38643598122B6FEE978D0B0485F9C41B54DDD7D022595594E1A469170414C76A4D9A4D207E29CF43ECE46F218070CC6BECC4078ACAA135ACF422C856C0E68EA1BF5669944DDD7BCDE7B1F8E415D77AECB980613C2E4AC91FC167A2B244592486606FC29C8FD7F045B9A
310
EF7053A7E60B504B0304140006080800CC70623BD9DDAED0EC0000007C01000008000000636F72652E786D6C8D90416EC3201045AF82665B61836D9CD8C2444DD39CA01740405C94182C03558F5F9C3852BBEB6A467FFE9B197D7EF89E6EE8CB2CC17A37002D0820E394D7D68D03A478C17B4007C117EFE32F1B20272733C0
310
2A83E0E3E2D3BC49CABB685CCCAAF3DA6CA20CC14440EA969B0182FA34932C648AD911AEC52CD5558EA6A0CF2EC329598D1E47ACCEFBECC59A050463A7EA5833865FEBDD0E37353BE3EE8DBDE3F6786A48D375FBF6CC78B9C282473B3DEFABC5C86834888A900E538A49F5419B9EB47DD5BC907D4F082F57FB1F28CDFA9F50
310
B22ED6D5F6EE030B20687EE43E10BC5CB3C8E51E54AE6B6EE207504B0304140006080800CC70623B55019EA25F0000007C00000007000000636E782E786D6C4DCB3B0E80201045D1AD90E915ED2CF8AC45050C11660C8261F98AB1B07AC9C97D42D718D865D3E909258CFD00CCE24AC6E326A164D74DC0B4128928FF326038
310
472BA13128B1252AC747C6BAB984FC68F0B87FE8960A5C09FE86CFB69FBA01504B0304140006080800CC70623BA24EB22D72010000D40300000C0000006662782F636F72652E786D6CC5535B6E833010BC8AE5DF0A6C5E49888CA3A6694ED00B38E05014B091B1518EDFE511A5A9D228FD2A1F60CDEC7A67C6986DCE4D8D7A
310
69BA4AAB0C073EC548AA5C17952A33ECECD15B61B4E1CC686DBF9561A44423333CC098B3D268D7CE50AE9595CA02AA74216750749DB418E5352C32DCE59FB211BE70162ABA93DF8AFC244AE9073ED050C759670D0840D390E18DF9F1706664C23973AE2A66B62A605A75ACA4C13C4976E1364A12EF355A2EBD384AF65EFA96
310
BC7B8BED2EA6719AAE16FB8491A199335B351775B991C2CA02F390D2D40B028F861F41BCA68B7518BFD0D59A524686F29B26D7164F36B94AD9289CE54E6D1DE6010819891F6E21228B3AD1831EC219194284CF98F06DD01008846CC5A1BEF83801D4CBDC6A1303536877A57A513B0953A94FC707FDBE6064EA84A9E3E6E0FA
310
EE8CF0E9198F7784A316AA0413C2C2F2E0ECA0934D1AE6D05A69BCDE9E91D2A611F573361E38FC1375157F5752AE6B6DFE4B11990F88CCBF0719EE23FF02504B0304140006080800CC70623B408A7D3B7C0000009D0000000B0000006662782F636E782E786D6C4DCCD10A83201886E15B91FFDC552A92A0064DBC8F581632
310
D3703A76F9ABD1C18E3E78F878E5F0D9027ABBFCF2292AE86E2D20171F69F6715550CB827B40839639A5F2770314A7CD293819B45C73AAFB45B35BA61ACAA1C1C7E7855C58C15BC331339661262CC762340413D68D77DA5B42298546CBE6573AF60CEB2F504B0304140006080800CC70623B449FB9BD290100001202000031
310
0000006662782F36394639363044362D344446342D343946362D394244322D3234314243333846323333332F636F72652E786D6C8D515B6EC32010BC0AE22B55850D98B871848994463E412FE002495162B07854397EA176A4F62F3F2C9A9D991D587EB84F37F0AD7D30CEF6905418026DA553C65E7A98E219ED203808EE9D
310
8B7F6810D871D23D2C3014FCE25D9A57483A1BB58D19B54EE9151C43D0110279CB971E06F9A5A7B11A53CC8C70ADE6515EC78BAE4895DB992778883E0700CB907242D17643D7E2538BD869608875438BBAE38922CAC8F1BDD90DB4691A5E2F42C153326A951B95E398B3D1FE599322163C9AE9115F7A3D46ADA0A018778810
310
84E907617BDCEE297BC5BB3DC6BC2EF47FA234AB2745C9D8D8D035EE220B50105E2F0DC1954B9FB747187D9F9D8FA0CCDB042D5FA0C015C65B42DF78BD10F3F3B363CB56C7109DCFDFBBB97E662ED92EB62D13BC2E1BCAE5777DB9966D8A1F504B0304140006080800CC70623BAD7543B64E01000033030000300000006662
310
782F36394639363044362D344446342D343946362D394244322D3234314243333846323333332F636E782E786D6CD593CD6EC32010845F0571AD6CE3D48AD20813A9873E410FBD12D82434182C7EAAE6EDBB2424CD25871E7B41D6EC30B3FA84F9E67BB2E40B4234DE8DB46F1925E094D7C6ED479AD3AE5951B2113C789FEE
310
6C943839C1488B4C05DF079FE72A69D8C96C13AAD6B8631503449F83828872B949AC57D26200B826A308D316B4064D6E46FCDA41C05550DC9E483A00797BFD207EFB092A45DE9514C1BBD22178396BD39D891265658C238DEA00936C654E5E433CB65A26D9F6EDB5EBC14EBF49A45CB856E66048291F6939A9A81BB5C89177
310
38143CA680F4AA299D66A042CEB3354A2684DC9D8D178FE0D9B8B41CAAD720F880EE7EF93C0C18769E099ECC04D5A102C8049A8A05632F4DDF376CF1DE0F6BB65C2F8627B65A33C6BB62177CEBBDAD973006829F89F22E814B54F4BC2BE347F8AA8F681390B50FA73F804400B5F542E796F19FF974E7F78DB802FE05E20750
310
4B0304140006080800CC70623B8D05915C650500003B100000340000006662782F36394639363044362D344446342D343946362D394244322D3234314243333846323333332F6F626A656374732E786D6CAD575B6FA33814FE2B887D06429276DA1565D4266D158D3A339A6846FB502932E050B66023DB74D2FDF5FB190C01
310
9276B2973C046C8ECFF53B17071F77456EBD502133CEAE6CDF9DD81665314F32965ED995DA3A17B6F5310C04E7AA47665B8C14F4CAD6DB7618A48257A5D94AE89654B91AEDDEDDFC61C998326A5B714EA4BCB265FC440BE2924AF184CA6737218AB8E976E7FA6E4338649B0A523E8D98964450A6A029F619B8588D52FE7039
310
B1BD30F0F4F730D0FF866AF6369557DB33949F31A9088B0F848DD8CCFCF9F2767A76E99CCDE733677E3EF59D9BBB9BA5E37F984D16E78BC5E5F5ED25044B25C0C96822E8D60EEFE11B91C581D77CEA34368A1F5329E68CD1B8B61F16D63A1B8E092D294B10C78C4A48EB593D192E7DED9BDEE7995E1B91FDEDD3ACEA9FE831
310
6A756F9F7D4D79F4274C90A7A04248AA51D5F8C718DAE06FB2F75AC4796EBE65D22A88A22223B995679120E2D50E41AA49C260C046A35368846B0BECD0DFF3EBEB8AD4F835768F69B9ADF25C43D30E6B646F807FAA64AD59F61715C7A54127C4AACA98BA3006A9D792DAE165E0D59B61A01FB3A9F9D838D2DAE62445C86166
310
F37564E842E7DE6A69879FEEA2DD5AE7E371E1A5E025154AC307D06A03D73EB5978C58FFA4C8E9033066E0F3BD53BEC1F39F91BE7B55103791EDE6BBB991A2046172CB4581D8B893FA674DDA17A77B3B7C413D1B511FD2743BFF8A38F03A658705E3ADF8015C3A3417FF3D7E439FF591DA0B5F18BC20C1B8981957AE6392A3
310
F43C640C01D1A0B4728E2DD4F26DB4B3C3152A252A3B4E913CEC1C72F012782FF88EFF8637AA552DBEF76408E8A8DE9E50F9E1CB3A2DA0DB1B6039A893B56063DC5B3E3FFB5F72E67AB9FEB4AEC496C4F4C1149625DD662C53E89D7BF0F6151A046260D1337DFDC94502430F83B0EE07A130A224BCAD7DAE1D9FB6CD422FF6
310
920702629C4BB9AE79C12F243C6432A6794E18E5552BA56B431AAB5D91317302B2B071E86C3A42B1A02F999E24061403B5D0EB639195DA655DD3EBEAB4FB862DDF579F014AD0E73C22F99E28DA57FB98E75C6CA2D74D53086D600F4786E0FE3144B771A8A7B900F03594DB8A633CBC49B2EDB69228BB479CF863B5E807AAAB
310
23872F6DFEB4129B949CA33823F58830E86D65621E10047D9DB34D862E8EAC3C2ABC2F7B2C40D67CDFE01F5545B92105AF983AC54D93D69E56FB8E797F88913F898A9FEC705D3F9D1B54EC8426FB500D40A03BD0119B06E1B95DDC7EB8F6975367793EBD70E66733DFB9BC982F9CE564727731999F5D4ECFCE3B8D6A4DC2A0
310
6D50FD148437D110834A64C6CDDF57FBACB5C307A2A477DFE4939736CFEF2B175371E0E10CF0DD1D5C15654E0BCA14D1E87DD02FF93782A162C0A3D95F1524A52770F972BF1EE9809D13CE7DD599467F8ECE9ADD85CE85A34CD45355448C64F9E8A031DC2D596ACC6E5DD93D9B82DE2EF5CAF81363A8E47996A0DE24564A79
310
4115AACE09C55E14540231FDA13C319787134EBF34E3A022514E5B4D9E0826E25C02D5805B15ABE1BEF51B26383D445DD9E875EE33FE4C22DA16427D65A3BCA92CA6D28DD01DF5DC53330704308475351050232CCD31583787BA75774AFB06E5070DD0C8EF484E19968C5D83BA5B90B244D31E54D55A372320FE4786B7EA58
310
44E135AA5467CB7EA333A61683CC6A8C3257034C10CF46F40EF9F5BE59BE5BD30C3C72D235E95D10345C1D45445A5F0BB47E46A5EBE5570F9380B5FA629579952296A773720405982B9DE04011506178964401AA8BDF1FBF0A8EAB6861DD6580C0E38217056766716DAEB2D6FA0917D3E4116581EADB879C4E7CFFB11EFACD
310
3D641311495D92C8676CB409A72D18610D803CE8A626049E8EC1887CB5B44CC39883690DDA8399B4B9855B481E7D71D4A9D22F96E5BB73BF5793020C02137BF837504B0304140006080000CC70623B000000000000000000000000350000006662782F36394639363044362D344446342D343946362D394244322D32343142
310
43333846323333332F76657274696365732E62696E504B0304140006080800CC70623BF270F1330600000004000000360000006662782F36394639363044362D344446342D343946362D394244322D3234314243333846323333332F747269616E676C65732E62696E636660600000504B0304140006080000CC70623B0000
310
00000000000000000000370000006662782F36394639363044362D344446342D343946362D394244322D3234314243333846323333332F617474726962757465732E62696E504B0304140006080800CC70623B08DA0BD19000000041010000360000006662782F36394639363044362D344446342D343946362D394244322D
310
3234314243333846323333332F6469726563746F72792E786D6C858F410AC3201045AF22B36F53E9A60B35CBEEBAE80D244E44489C6234F4F835464A48035D0DF398FF9F8AF63D0E6CC63039F212F8F9020C7D47C6792B21C5FE7403D62A1188E2E60C98D7234A5830286103A55745067B9D86B8A3CF9C7F90C11DE607FB14
310
4396D7B6A82D282E9A152AD114D5EF2CB866EEE831B8EEA07A7BB5A8D7D61A2BAAEB7FD5F70921FF497D00504B0304140006080800CC70623BCA768048FE000000A00100003B0000006662782F36394639363044362D344446342D343946362D394244322D3234314243333846323333332F7265736F75726365732F636F72
310
652E786D6C8D50596E833010BD0A9ADFCA60D600328E9AA639412F609909B1126CE4A5EAF16B0295DABFFECC8CDEA2797AECF8353F924FB44E193D409E5248504B332A3D0D10FC95B4901C39B3C6F85F3248B49871801506CE266BC2B243D2688FDA47549B11775038871E12F988C7004EDE7016A9083E2ADC3D5D84BC8B09
310
D33C8D74D471E6BC8D0192EDC93A815B742658898E651BCB59086ADC356A8C3FD555A1055ED7E7E254D615792D0F075295F585746FF53B694EE78A565DD736979A65AB9933AFE69F8CD2A2F038022F28ED489E135A7CE4554F9BBEA85E68DB53CAB255FEC71496F19FA6A0B42F8B3DEE6673C0F318E4497096AD7DC5F52C33
310
EEB55BFE0D504B010214000A0000080000CC70623B3DEE336E79000000790000001B00000000000000000000000000000000006175746F6465736B2D64657369676E2D7061636B6167652E786D6C504B01021400140006080800CC70623BD486FD9CA0000000F40000001300000000000000000000000000B20000005B436F
310
6E74656E745F54797065735D2E786D6C504B01021400140006080800CC70623BD9DDAED0EC0000007C010000080000000000000000000000000083010000636F72652E786D6C504B01021400140006080800CC70623B55019EA25F0000007C000000070000000000000000000000000095020000636E782E786D6C504B0102
310
1400140006080800CC70623BA24EB22D72010000D40300000C00000000000000000000000000190300006662782F636F72652E786D6C504B01021400140006080800CC70623B408A7D3B7C0000009D0000000B00000000000000000000000000B50400006662782F636E782E786D6C504B01021400140006080800CC70623B
310
449FB9BD290100001202000031000000000000000000000000005A0500006662782F36394639363044362D344446342D343946362D394244322D3234314243333846323333332F636F72652E786D6C504B01021400140006080800CC70623BAD7543B64E010000330300003000000000000000000000000000D20600006662
310
782F36394639363044362D344446342D343946362D394244322D3234314243333846323333332F636E782E786D6C504B01021400140006080800CC70623B8D05915C650500003B10000034000000000000000000000000006E0800006662782F36394639363044362D344446342D343946362D394244322D32343142433338
310
46323333332F6F626A656374732E786D6C504B01021400140006080000CC70623B0000000000000000000000003500000000000000000000000000250E00006662782F36394639363044362D344446342D343946362D394244322D3234314243333846323333332F76657274696365732E62696E504B010214001400060808
310
00CC70623BF270F13306000000040000003600000000000000000000000000780E00006662782F36394639363044362D344446342D343946362D394244322D3234314243333846323333332F747269616E676C65732E62696E504B01021400140006080000CC70623B00000000000000000000000037000000000000000000
310
00000000D20E00006662782F36394639363044362D344446342D343946362D394244322D3234314243333846323333332F617474726962757465732E62696E504B01021400140006080800CC70623B08DA0BD190000000410100003600000000000000000000000000270F00006662782F36394639363044362D344446342D
310
343946362D394244322D3234314243333846323333332F6469726563746F72792E786D6C504B01021400140006080800CC70623BCA768048FE000000A00100003B000000000000000000000000000B1000006662782F36394639363044362D344446342D343946362D394244322D3234314243333846323333332F7265736F
310
75726365732F636F72652E786D6C504B0506000000000E000E0080040000621100000000
  0
XRECORD
  5
22C62
102
{ACAD_REACTORS
330
22C2F
102
}
330
22C2F
100
AcDbXrecord
280
     1
102
DISPLAYNAME
  1
Metric50
102
FLAGS
 90
        0
  0
CELLSTYLEMAP
  5
22EF0
102
{ACAD_REACTORS
330
22EEF
102
}
330
22EEF
100
AcDbCellStyleMap
 90
        3
300
CELLSTYLE
  1
TABLEFORMAT_BEGIN
 90
        5
170
     1
 91
        0
 92
    32768
 62
   257
 93
        1
300
CONTENTFORMAT
  1
CONTENTFORMAT_BEGIN
 90
        0
 91
        0
 92
        4
 93
        0
300

 40
0.0
140
1.0
 94
        5
 62
     0
340
11
144
6.0
309
CONTENTFORMAT_END
171
     1
301
MARGIN
  1
CELLMARGIN_BEGIN
 40
1.5
 40
1.5
 40
1.5
 40
1.5
 40
0.18
 40
0.18
309
CELLMARGIN_END
 94
        6
 95
        1
302
GRIDFORMAT
  1
GRIDFORMAT_BEGIN
 90
        0
 91
        1
 62
     0
 92
       -2
340
0
 93
        0
 40
0.045
309
GRIDFORMAT_END
 95
        2
302
GRIDFORMAT
  1
GRIDFORMAT_BEGIN
 90
        0
 91
        1
 62
     0
 92
       -2
340
0
 93
        0
 40
0.045
309
GRIDFORMAT_END
 95
        4
302
GRIDFORMAT
  1
GRIDFORMAT_BEGIN
 90
        0
 91
        1
 62
     0
 92
       -2
340
0
 93
        0
 40
0.045
309
GRIDFORMAT_END
 95
        8
302
GRIDFORMAT
  1
GRIDFORMAT_BEGIN
 90
        0
 91
        1
 62
     0
 92
       -2
340
0
 93
        0
 40
0.045
309
GRIDFORMAT_END
 95
       16
302
GRIDFORMAT
  1
GRIDFORMAT_BEGIN
 90
        0
 91
        1
 62
     0
 92
       -2
340
0
 93
        0
 40
0.045
309
GRIDFORMAT_END
 95
       32
302
GRIDFORMAT
  1
GRIDFORMAT_BEGIN
 90
        0
 91
        1
 62
     0
 92
       -2
340
0
 93
        0
 40
0.045
309
GRIDFORMAT_END
309
TABLEFORMAT_END
  1
CELLSTYLE_BEGIN
 90
        1
 91
        1
300
_TITLE
309
CELLSTYLE_END
300
CELLSTYLE
  1
TABLEFORMAT_BEGIN
 90
        5
170
     1
 91
        0
 92
        0
 62
   257
 93
        1
300
CONTENTFORMAT
  1
CONTENTFORMAT_BEGIN
 90
        0
 91
        0
 92
        4
 93
        0
300

 40
0.0
140
1.0
 94
        5
 62
     0
340
11
144
4.5
309
CONTENTFORMAT_END
171
     1
301
MARGIN
  1
CELLMARGIN_BEGIN
 40
1.5
 40
1.5
 40
1.5
 40
1.5
 40
0.18
 40
0.18
309
CELLMARGIN_END
 94
        6
 95
        1
302
GRIDFORMAT
  1
GRIDFORMAT_BEGIN
 90
        0
 91
        1
 62
     0
 92
       -2
340
0
 93
        0
 40
0.045
309
GRIDFORMAT_END
 95
        2
302
GRIDFORMAT
  1
GRIDFORMAT_BEGIN
 90
        0
 91
        1
 62
     0
 92
       -2
340
0
 93
        0
 40
0.045
309
GRIDFORMAT_END
 95
        4
302
GRIDFORMAT
  1
GRIDFORMAT_BEGIN
 90
        0
 91
        1
 62
     0
 92
       -2
340
0
 93
        0
 40
0.045
309
GRIDFORMAT_END
 95
        8
302
GRIDFORMAT
  1
GRIDFORMAT_BEGIN
 90
        0
 91
        1
 62
     0
 92
       -2
340
0
 93
        0
 40
0.045
309
GRIDFORMAT_END
 95
       16
302
GRIDFORMAT
  1
GRIDFORMAT_BEGIN
 90
        0
 91
        1
 62
     0
 92
       -2
340
0
 93
        0
 40
0.045
309
GRIDFORMAT_END
 95
       32
302
GRIDFORMAT
  1
GRIDFORMAT_BEGIN
 90
        0
 91
        1
 62
     0
 92
       -2
340
0
 93
        0
 40
0.045
309
GRIDFORMAT_END
309
TABLEFORMAT_END
  1
CELLSTYLE_BEGIN
 90
        2
 91
        1
300
_HEADER
309
CELLSTYLE_END
300
CELLSTYLE
  1
TABLEFORMAT_BEGIN
 90
        5
170
     1
 91
        0
 92
        0
 62
   257
 93
        1
300
CONTENTFORMAT
  1
CONTENTFORMAT_BEGIN
 90
        0
 91
        0
 92
        4
 93
        0
300

 40
0.0
140
1.0
 94
        2
 62
     0
340
11
144
4.5
309
CONTENTFORMAT_END
171
     1
301
MARGIN
  1
CELLMARGIN_BEGIN
 40
1.5
 40
1.5
 40
1.5
 40
1.5
 40
0.18
 40
0.18
309
CELLMARGIN_END
 94
        6
 95
        1
302
GRIDFORMAT
  1
GRIDFORMAT_BEGIN
 90
        0
 91
        1
 62
     0
 92
       -2
340
0
 93
        0
 40
0.045
309
GRIDFORMAT_END
 95
        2
302
GRIDFORMAT
  1
GRIDFORMAT_BEGIN
 90
        0
 91
        1
 62
     0
 92
       -2
340
0
 93
        0
 40
0.045
309
GRIDFORMAT_END
 95
        4
302
GRIDFORMAT
  1
GRIDFORMAT_BEGIN
 90
        0
 91
        1
 62
     0
 92
       -2
340
0
 93
        0
 40
0.045
309
GRIDFORMAT_END
 95
        8
302
GRIDFORMAT
  1
GRIDFORMAT_BEGIN
 90
        0
 91
        1
 62
     0
 92
       -2
340
0
 93
        0
 40
0.045
309
GRIDFORMAT_END
 95
       16
302
GRIDFORMAT
  1
GRIDFORMAT_BEGIN
 90
        0
 91
        1
 62
     0
 92
       -2
340
0
 93
        0
 40
0.045
309
GRIDFORMAT_END
 95
       32
302
GRIDFORMAT
  1
GRIDFORMAT_BEGIN
 90
        0
 91
        1
 62
     0
 92
       -2
340
0
 93
        0
 40
0.045
309
GRIDFORMAT_END
309
TABLEFORMAT_END
  1
CELLSTYLE_BEGIN
 90
        3
 91
        2
300
_DATA
309
CELLSTYLE_END
  0
XRECORD
  5
22EF2
102
{ACAD_REACTORS
330
22EF1
102
}
330
22EF1
100
AcDbXrecord
280
     1
102
RTVSPost2010Prop28
280
     1
102
RTVSPost2010PropOp28
 70
     1
102
RTVSPost2010Prop29
280
     1
102
RTVSPost2010PropOp29
 70
     1
102
RTVSPost2010Prop30
280
     0
102
RTVSPost2010PropOp30
 70
     1
102
RTVSPost2010Prop31
280
     0
102
RTVSPost2010PropOp31
 70
     1
102
RTVSPost2010Prop32
280
     0
102
RTVSPost2010PropOp32
 70
     1
102
RTVSPost2010Prop33
280
     0
102
RTVSPost2010PropOp33
 70
     1
102
RTVSPost2010Prop34
280
     0
102
RTVSPost2010PropOp34
 70
     1
102
RTVSPost2010Prop35
280
     0
102
RTVSPost2010PropOp35
 70
     1
102
RTVSPost2010Prop36
280
     0
102
RTVSPost2010PropOp36
 70
     1
102
RTVSPost2010Prop37
 90
       50
102
RTVSPost2010PropOp37
 70
     1
102
RTVSPost2010Prop38
140
0.0
102
RTVSPost2010PropOp38
 70
     1
102
RTVSPost2010Prop39
140
1.0
102
RTVSPost2010PropOp39
 70
     1
102
RTVSPost2010Prop40
 90
        0
102
RTVSPost2010PropOp40
 70
     1
102
RTVSPost2010Prop41ColorIndex
 90
       18
102
RTVSPost2010Prop41ColorRGB
 90
        0
102
RTVSPost2010PropOp41
 70
     1
102
RTVSPost2010Prop42
 90
       50
102
RTVSPost2010PropOp42
 70
     1
102
RTVSPost2010Prop43
 90
        3
102
RTVSPost2010PropOp43
 70
     1
102
RTVSPost2010Prop44ColorIndex
 90
        5
102
RTVSPost2010Prop44ColorRGB
 90
      255
102
RTVSPost2010PropOp44
 70
     1
102
RTVSPost2010Prop45
280
     0
102
RTVSPost2010PropOp45
 70
     1
102
RTVSPost2010Prop46
 90
       50
102
RTVSPost2010PropOp46
 70
     1
102
RTVSPost2010Prop47
 90
       50
102
RTVSPost2010PropOp47
 70
     1
102
RTVSPost2010Prop48
 90
       50
102
RTVSPost2010PropOp48
 70
     1
102
RTVSPost2010Prop49
280
     0
102
RTVSPost2010PropOp49
 70
     1
102
RTVSPost2010Prop50
 90
       50
102
RTVSPost2010PropOp50
 70
     1
102
RTVSPost2010Prop51ColorIndex
 90
      256
102
RTVSPost2010Prop51ColorRGB
 90
-16777216
102
RTVSPost2010PropOp51
 70
     0
102
RTVSPost2010Prop52
140
1.0
102
RTVSPost2010PropOp52
 70
     0
102
RTVSPost2010Prop53
 90
        2
102
RTVSPost2010PropOp53
 70
     1
102
RTVSPost2010Prop54
  1
strokes_ogs.tif
102
RTVSPost2010PropOp54
 70
     1
102
RTVSPost2010Prop55
280
     0
102
RTVSPost2010PropOp55
 70
     1
102
RTVSPost2010Prop56
140
1.0
102
RTVSPost2010PropOp56
 70
     1
102
RTVSPost2010Prop57
140
1.0
102
RTVSPost2010PropOp57
 70
     1
  0
XRECORD
  5
22EF4
102
{ACAD_REACTORS
330
22EF3
102
}
330
22EF3
100
AcDbXrecord
280
     1
102
RTVSPost2010Prop28
280
     0
102
RTVSPost2010PropOp28
 70
     1
102
RTVSPost2010Prop29
280
     1
102
RTVSPost2010PropOp29
 70
     1
102
RTVSPost2010Prop30
280
     1
102
RTVSPost2010PropOp30
 70
     1
102
RTVSPost2010Prop31
280
     0
102
RTVSPost2010PropOp31
 70
     1
102
RTVSPost2010Prop32
280
     0
102
RTVSPost2010PropOp32
 70
     1
102
RTVSPost2010Prop33
280
     0
102
RTVSPost2010PropOp33
 70
     1
102
RTVSPost2010Prop34
280
     0
102
RTVSPost2010PropOp34
 70
     1
102
RTVSPost2010Prop35
280
     0
102
RTVSPost2010PropOp35
 70
     1
102
RTVSPost2010Prop36
280
     0
102
RTVSPost2010PropOp36
 70
     1
102
RTVSPost2010Prop37
 90
       50
102
RTVSPost2010PropOp37
 70
     1
102
RTVSPost2010Prop38
140
0.0
102
RTVSPost2010PropOp38
 70
     1
102
RTVSPost2010Prop39
140
1.0
102
RTVSPost2010PropOp39
 70
     1
102
RTVSPost2010Prop40
 90
        0
102
RTVSPost2010PropOp40
 70
     1
102
RTVSPost2010Prop41ColorIndex
 90
       18
102
RTVSPost2010Prop41ColorRGB
 90
        0
102
RTVSPost2010PropOp41
 70
     1
102
RTVSPost2010Prop42
 90
       50
102
RTVSPost2010PropOp42
 70
     1
102
RTVSPost2010Prop43
 90
        3
102
RTVSPost2010PropOp43
 70
     1
102
RTVSPost2010Prop44ColorIndex
 90
        5
102
RTVSPost2010Prop44ColorRGB
 90
      255
102
RTVSPost2010PropOp44
 70
     1
102
RTVSPost2010Prop45
280
     0
102
RTVSPost2010PropOp45
 70
     1
102
RTVSPost2010Prop46
 90
       50
102
RTVSPost2010PropOp46
 70
     1
102
RTVSPost2010Prop47
 90
       50
102
RTVSPost2010PropOp47
 70
     1
102
RTVSPost2010Prop48
 90
       50
102
RTVSPost2010PropOp48
 70
     1
102
RTVSPost2010Prop49
280
     0
102
RTVSPost2010PropOp49
 70
     1
102
RTVSPost2010Prop50
 90
       50
102
RTVSPost2010PropOp50
 70
     1
102
RTVSPost2010Prop51ColorIndex
 90
      256
102
RTVSPost2010Prop51ColorRGB
 90
-16777216
102
RTVSPost2010PropOp51
 70
     0
102
RTVSPost2010Prop52
140
1.0
102
RTVSPost2010PropOp52
 70
     0
102
RTVSPost2010Prop53
 90
        2
102
RTVSPost2010PropOp53
 70
     1
102
RTVSPost2010Prop54
  1
strokes_ogs.tif
102
RTVSPost2010PropOp54
 70
     1
102
RTVSPost2010Prop55
280
     0
102
RTVSPost2010PropOp55
 70
     1
102
RTVSPost2010Prop56
140
1.0
102
RTVSPost2010PropOp56
 70
     1
102
RTVSPost2010Prop57
140
1.0
102
RTVSPost2010PropOp57
 70
     1
  0
XRECORD
  5
22EF6
102
{ACAD_REACTORS
330
22EF5
102
}
330
22EF5
100
AcDbXrecord
280
     1
102
RTVSPost2010Prop28
280
     0
102
RTVSPost2010PropOp28
 70
     1
102
RTVSPost2010Prop29
280
     1
102
RTVSPost2010PropOp29
 70
     1
102
RTVSPost2010Prop30
280
     1
102
RTVSPost2010PropOp30
 70
     1
102
RTVSPost2010Prop31
280
     0
102
RTVSPost2010PropOp31
 70
     1
102
RTVSPost2010Prop32
280
     0
102
RTVSPost2010PropOp32
 70
     1
102
RTVSPost2010Prop33
280
     0
102
RTVSPost2010PropOp33
 70
     1
102
RTVSPost2010Prop34
280
     0
102
RTVSPost2010PropOp34
 70
     1
102
RTVSPost2010Prop35
280
     0
102
RTVSPost2010PropOp35
 70
     1
102
RTVSPost2010Prop36
280
     0
102
RTVSPost2010PropOp36
 70
     1
102
RTVSPost2010Prop37
 90
       50
102
RTVSPost2010PropOp37
 70
     1
102
RTVSPost2010Prop38
140
0.0
102
RTVSPost2010PropOp38
 70
     1
102
RTVSPost2010Prop39
140
1.0
102
RTVSPost2010PropOp39
 70
     1
102
RTVSPost2010Prop40
 90
        0
102
RTVSPost2010PropOp40
 70
     1
102
RTVSPost2010Prop41ColorIndex
 90
       18
102
RTVSPost2010Prop41ColorRGB
 90
        0
102
RTVSPost2010PropOp41
 70
     1
102
RTVSPost2010Prop42
 90
       50
102
RTVSPost2010PropOp42
 70
     1
102
RTVSPost2010Prop43
 90
        3
102
RTVSPost2010PropOp43
 70
     1
102
RTVSPost2010Prop44ColorIndex
 90
        5
102
RTVSPost2010Prop44ColorRGB
 90
      255
102
RTVSPost2010PropOp44
 70
     1
102
RTVSPost2010Prop45
280
     0
102
RTVSPost2010PropOp45
 70
     1
102
RTVSPost2010Prop46
 90
       50
102
RTVSPost2010PropOp46
 70
     1
102
RTVSPost2010Prop47
 90
       50
102
RTVSPost2010PropOp47
 70
     1
102
RTVSPost2010Prop48
 90
       50
102
RTVSPost2010PropOp48
 70
     1
102
RTVSPost2010Prop49
280
     0
102
RTVSPost2010PropOp49
 70
     1
102
RTVSPost2010Prop50
 90
       50
102
RTVSPost2010PropOp50
 70
     1
102
RTVSPost2010Prop51ColorIndex
 90
      256
102
RTVSPost2010Prop51ColorRGB
 90
-16777216
102
RTVSPost2010PropOp51
 70
     0
102
RTVSPost2010Prop52
140
1.0
102
RTVSPost2010PropOp52
 70
     0
102
RTVSPost2010Prop53
 90
        2
102
RTVSPost2010PropOp53
 70
     1
102
RTVSPost2010Prop54
  1
strokes_ogs.tif
102
RTVSPost2010PropOp54
 70
     1
102
RTVSPost2010Prop55
280
     0
102
RTVSPost2010PropOp55
 70
     1
102
RTVSPost2010Prop56
140
1.0
102
RTVSPost2010PropOp56
 70
     1
102
RTVSPost2010Prop57
140
1.0
102
RTVSPost2010PropOp57
 70
     1
  0
XRECORD
  5
22EF8
102
{ACAD_REACTORS
330
22EF7
102
}
330
22EF7
100
AcDbXrecord
280
     1
102
RTVSPost2010Prop28
280
     0
102
RTVSPost2010PropOp28
 70
     1
102
RTVSPost2010Prop29
280
     1
102
RTVSPost2010PropOp29
 70
     1
102
RTVSPost2010Prop30
280
     1
102
RTVSPost2010PropOp30
 70
     1
102
RTVSPost2010Prop31
280
     0
102
RTVSPost2010PropOp31
 70
     1
102
RTVSPost2010Prop32
280
     0
102
RTVSPost2010PropOp32
 70
     1
102
RTVSPost2010Prop33
280
     0
102
RTVSPost2010PropOp33
 70
     1
102
RTVSPost2010Prop34
280
     0
102
RTVSPost2010PropOp34
 70
     1
102
RTVSPost2010Prop35
280
     0
102
RTVSPost2010PropOp35
 70
     1
102
RTVSPost2010Prop36
280
     0
102
RTVSPost2010PropOp36
 70
     1
102
RTVSPost2010Prop37
 90
       50
102
RTVSPost2010PropOp37
 70
     1
102
RTVSPost2010Prop38
140
0.0
102
RTVSPost2010PropOp38
 70
     1
102
RTVSPost2010Prop39
140
1.0
102
RTVSPost2010PropOp39
 70
     1
102
RTVSPost2010Prop40
 90
        0
102
RTVSPost2010PropOp40
 70
     1
102
RTVSPost2010Prop41ColorIndex
 90
       18
102
RTVSPost2010Prop41ColorRGB
 90
        0
102
RTVSPost2010PropOp41
 70
     1
102
RTVSPost2010Prop42
 90
       50
102
RTVSPost2010PropOp42
 70
     1
102
RTVSPost2010Prop43
 90
        3
102
RTVSPost2010PropOp43
 70
     1
102
RTVSPost2010Prop44ColorIndex
 90
        5
102
RTVSPost2010Prop44ColorRGB
 90
      255
102
RTVSPost2010PropOp44
 70
     1
102
RTVSPost2010Prop45
280
     0
102
RTVSPost2010PropOp45
 70
     1
102
RTVSPost2010Prop46
 90
       50
102
RTVSPost2010PropOp46
 70
     1
102
RTVSPost2010Prop47
 90
       50
102
RTVSPost2010PropOp47
 70
     1
102
RTVSPost2010Prop48
 90
       50
102
RTVSPost2010PropOp48
 70
     1
102
RTVSPost2010Prop49
280
     0
102
RTVSPost2010PropOp49
 70
     1
102
RTVSPost2010Prop50
 90
       50
102
RTVSPost2010PropOp50
 70
     1
102
RTVSPost2010Prop51ColorIndex
 90
      256
102
RTVSPost2010Prop51ColorRGB
 90
-16777216
102
RTVSPost2010PropOp51
 70
     0
102
RTVSPost2010Prop52
140
1.0
102
RTVSPost2010PropOp52
 70
     0
102
RTVSPost2010Prop53
 90
        2
102
RTVSPost2010PropOp53
 70
     1
102
RTVSPost2010Prop54
  1
strokes_ogs.tif
102
RTVSPost2010PropOp54
 70
     1
102
RTVSPost2010Prop55
280
     0
102
RTVSPost2010PropOp55
 70
     1
102
RTVSPost2010Prop56
140
1.0
102
RTVSPost2010PropOp56
 70
     1
102
RTVSPost2010Prop57
140
1.0
102
RTVSPost2010PropOp57
 70
     1
  0
XRECORD
  5
22EFA
102
{ACAD_REACTORS
330
22EF9
102
}
330
22EF9
100
AcDbXrecord
280
     1
102
RTVSPost2010Prop28
280
     0
102
RTVSPost2010PropOp28
 70
     1
102
RTVSPost2010Prop29
280
     1
102
RTVSPost2010PropOp29
 70
     1
102
RTVSPost2010Prop30
280
     1
102
RTVSPost2010PropOp30
 70
     1
102
RTVSPost2010Prop31
280
     0
102
RTVSPost2010PropOp31
 70
     1
102
RTVSPost2010Prop32
280
     0
102
RTVSPost2010PropOp32
 70
     1
102
RTVSPost2010Prop33
280
     0
102
RTVSPost2010PropOp33
 70
     1
102
RTVSPost2010Prop34
280
     0
102
RTVSPost2010PropOp34
 70
     1
102
RTVSPost2010Prop35
280
     0
102
RTVSPost2010PropOp35
 70
     1
102
RTVSPost2010Prop36
280
     0
102
RTVSPost2010PropOp36
 70
     1
102
RTVSPost2010Prop37
 90
       50
102
RTVSPost2010PropOp37
 70
     1
102
RTVSPost2010Prop38
140
0.0
102
RTVSPost2010PropOp38
 70
     1
102
RTVSPost2010Prop39
140
1.0
102
RTVSPost2010PropOp39
 70
     1
102
RTVSPost2010Prop40
 90
        0
102
RTVSPost2010PropOp40
 70
     1
102
RTVSPost2010Prop41ColorIndex
 90
       18
102
RTVSPost2010Prop41ColorRGB
 90
        0
102
RTVSPost2010PropOp41
 70
     1
102
RTVSPost2010Prop42
 90
       50
102
RTVSPost2010PropOp42
 70
     1
102
RTVSPost2010Prop43
 90
        3
102
RTVSPost2010PropOp43
 70
     1
102
RTVSPost2010Prop44ColorIndex
 90
        5
102
RTVSPost2010Prop44ColorRGB
 90
      255
102
RTVSPost2010PropOp44
 70
     1
102
RTVSPost2010Prop45
280
     0
102
RTVSPost2010PropOp45
 70
     1
102
RTVSPost2010Prop46
 90
       50
102
RTVSPost2010PropOp46
 70
     1
102
RTVSPost2010Prop47
 90
       50
102
RTVSPost2010PropOp47
 70
     1
102
RTVSPost2010Prop48
 90
       50
102
RTVSPost2010PropOp48
 70
     1
102
RTVSPost2010Prop49
280
     0
102
RTVSPost2010PropOp49
 70
     1
102
RTVSPost2010Prop50
 90
       50
102
RTVSPost2010PropOp50
 70
     1
102
RTVSPost2010Prop51ColorIndex
 90
      256
102
RTVSPost2010Prop51ColorRGB
 90
-16777216
102
RTVSPost2010PropOp51
 70
     0
102
RTVSPost2010Prop52
140
1.0
102
RTVSPost2010PropOp52
 70
     0
102
RTVSPost2010Prop53
 90
        2
102
RTVSPost2010PropOp53
 70
     1
102
RTVSPost2010Prop54
  1
strokes_ogs.tif
102
RTVSPost2010PropOp54
 70
     1
102
RTVSPost2010Prop55
280
     0
102
RTVSPost2010PropOp55
 70
     1
102
RTVSPost2010Prop56
140
1.0
102
RTVSPost2010PropOp56
 70
     1
102
RTVSPost2010Prop57
140
1.0
102
RTVSPost2010PropOp57
 70
     1
  0
XRECORD
  5
22EFC
102
{ACAD_REACTORS
330
22EFB
102
}
330
22EFB
100
AcDbXrecord
280
     1
102
RTVSPost2010Prop28
280
     0
102
RTVSPost2010PropOp28
 70
     1
102
RTVSPost2010Prop29
280
     1
102
RTVSPost2010PropOp29
 70
     1
102
RTVSPost2010Prop30
280
     1
102
RTVSPost2010PropOp30
 70
     1
102
RTVSPost2010Prop31
280
     0
102
RTVSPost2010PropOp31
 70
     1
102
RTVSPost2010Prop32
280
     0
102
RTVSPost2010PropOp32
 70
     1
102
RTVSPost2010Prop33
280
     0
102
RTVSPost2010PropOp33
 70
     1
102
RTVSPost2010Prop34
280
     0
102
RTVSPost2010PropOp34
 70
     1
102
RTVSPost2010Prop35
280
     0
102
RTVSPost2010PropOp35
 70
     1
102
RTVSPost2010Prop36
280
     0
102
RTVSPost2010PropOp36
 70
     1
102
RTVSPost2010Prop37
 90
       50
102
RTVSPost2010PropOp37
 70
     1
102
RTVSPost2010Prop38
140
0.0
102
RTVSPost2010PropOp38
 70
     1
102
RTVSPost2010Prop39
140
1.0
102
RTVSPost2010PropOp39
 70
     1
102
RTVSPost2010Prop40
 90
        0
102
RTVSPost2010PropOp40
 70
     1
102
RTVSPost2010Prop41ColorIndex
 90
       18
102
RTVSPost2010Prop41ColorRGB
 90
        0
102
RTVSPost2010PropOp41
 70
     1
102
RTVSPost2010Prop42
 90
       50
102
RTVSPost2010PropOp42
 70
     1
102
RTVSPost2010Prop43
 90
        3
102
RTVSPost2010PropOp43
 70
     1
102
RTVSPost2010Prop44ColorIndex
 90
        5
102
RTVSPost2010Prop44ColorRGB
 90
      255
102
RTVSPost2010PropOp44
 70
     1
102
RTVSPost2010Prop45
280
     0
102
RTVSPost2010PropOp45
 70
     1
102
RTVSPost2010Prop46
 90
       50
102
RTVSPost2010PropOp46
 70
     1
102
RTVSPost2010Prop47
 90
       50
102
RTVSPost2010PropOp47
 70
     1
102
RTVSPost2010Prop48
 90
       50
102
RTVSPost2010PropOp48
 70
     1
102
RTVSPost2010Prop49
280
     0
102
RTVSPost2010PropOp49
 70
     1
102
RTVSPost2010Prop50
 90
       50
102
RTVSPost2010PropOp50
 70
     1
102
RTVSPost2010Prop51ColorIndex
 90
      256
102
RTVSPost2010Prop51ColorRGB
 90
-16777216
102
RTVSPost2010PropOp51
 70
     0
102
RTVSPost2010Prop52
140
1.0
102
RTVSPost2010PropOp52
 70
     0
102
RTVSPost2010Prop53
 90
        2
102
RTVSPost2010PropOp53
 70
     1
102
RTVSPost2010Prop54
  1
strokes_ogs.tif
102
RTVSPost2010PropOp54
 70
     1
102
RTVSPost2010Prop55
280
     0
102
RTVSPost2010PropOp55
 70
     1
102
RTVSPost2010Prop56
140
1.0
102
RTVSPost2010PropOp56
 70
     1
102
RTVSPost2010Prop57
140
1.0
102
RTVSPost2010PropOp57
 70
     1
  0
XRECORD
  5
22EFE
102
{ACAD_REACTORS
330
22EFD
102
}
330
22EFD
100
AcDbXrecord
280
     1
102
RTVSPost2010Prop28
280
     0
102
RTVSPost2010PropOp28
 70
     1
102
RTVSPost2010Prop29
280
     1
102
RTVSPost2010PropOp29
 70
     1
102
RTVSPost2010Prop30
280
     1
102
RTVSPost2010PropOp30
 70
     1
102
RTVSPost2010Prop31
280
     0
102
RTVSPost2010PropOp31
 70
     1
102
RTVSPost2010Prop32
280
     0
102
RTVSPost2010PropOp32
 70
     1
102
RTVSPost2010Prop33
280
     0
102
RTVSPost2010PropOp33
 70
     1
102
RTVSPost2010Prop34
280
     0
102
RTVSPost2010PropOp34
 70
     1
102
RTVSPost2010Prop35
280
     0
102
RTVSPost2010PropOp35
 70
     1
102
RTVSPost2010Prop36
280
     0
102
RTVSPost2010PropOp36
 70
     1
102
RTVSPost2010Prop37
 90
       50
102
RTVSPost2010PropOp37
 70
     1
102
RTVSPost2010Prop38
140
0.0
102
RTVSPost2010PropOp38
 70
     1
102
RTVSPost2010Prop39
140
1.0
102
RTVSPost2010PropOp39
 70
     1
102
RTVSPost2010Prop40
 90
        0
102
RTVSPost2010PropOp40
 70
     1
102
RTVSPost2010Prop41ColorIndex
 90
       18
102
RTVSPost2010Prop41ColorRGB
 90
        0
102
RTVSPost2010PropOp41
 70
     1
102
RTVSPost2010Prop42
 90
       50
102
RTVSPost2010PropOp42
 70
     1
102
RTVSPost2010Prop43
 90
        3
102
RTVSPost2010PropOp43
 70
     1
102
RTVSPost2010Prop44ColorIndex
 90
        5
102
RTVSPost2010Prop44ColorRGB
 90
      255
102
RTVSPost2010PropOp44
 70
     1
102
RTVSPost2010Prop45
280
     0
102
RTVSPost2010PropOp45
 70
     1
102
RTVSPost2010Prop46
 90
       50
102
RTVSPost2010PropOp46
 70
     1
102
RTVSPost2010Prop47
 90
       50
102
RTVSPost2010PropOp47
 70
     1
102
RTVSPost2010Prop48
 90
       50
102
RTVSPost2010PropOp48
 70
     1
102
RTVSPost2010Prop49
280
     0
102
RTVSPost2010PropOp49
 70
     1
102
RTVSPost2010Prop50
 90
       50
102
RTVSPost2010PropOp50
 70
     1
102
RTVSPost2010Prop51ColorIndex
 90
      256
102
RTVSPost2010Prop51ColorRGB
 90
-16777216
102
RTVSPost2010PropOp51
 70
     0
102
RTVSPost2010Prop52
140
1.0
102
RTVSPost2010PropOp52
 70
     0
102
RTVSPost2010Prop53
 90
        2
102
RTVSPost2010PropOp53
 70
     1
102
RTVSPost2010Prop54
  1
strokes_ogs.tif
102
RTVSPost2010PropOp54
 70
     1
102
RTVSPost2010Prop55
280
     0
102
RTVSPost2010PropOp55
 70
     1
102
RTVSPost2010Prop56
140
1.0
102
RTVSPost2010PropOp56
 70
     1
102
RTVSPost2010Prop57
140
1.0
102
RTVSPost2010PropOp57
 70
     1
  0
XRECORD
  5
22F00
102
{ACAD_REACTORS
330
22EFF
102
}
330
22EFF
100
AcDbXrecord
280
     1
102
RTVSPost2010Prop28
280
     0
102
RTVSPost2010PropOp28
 70
     1
102
RTVSPost2010Prop29
280
     1
102
RTVSPost2010PropOp29
 70
     1
102
RTVSPost2010Prop30
280
     1
102
RTVSPost2010PropOp30
 70
     1
102
RTVSPost2010Prop31
280
     0
102
RTVSPost2010PropOp31
 70
     1
102
RTVSPost2010Prop32
280
     0
102
RTVSPost2010PropOp32
 70
     1
102
RTVSPost2010Prop33
280
     0
102
RTVSPost2010PropOp33
 70
     1
102
RTVSPost2010Prop34
280
     0
102
RTVSPost2010PropOp34
 70
     1
102
RTVSPost2010Prop35
280
     0
102
RTVSPost2010PropOp35
 70
     1
102
RTVSPost2010Prop36
280
     0
102
RTVSPost2010PropOp36
 70
     1
102
RTVSPost2010Prop37
 90
       50
102
RTVSPost2010PropOp37
 70
     1
102
RTVSPost2010Prop38
140
0.0
102
RTVSPost2010PropOp38
 70
     1
102
RTVSPost2010Prop39
140
1.0
102
RTVSPost2010PropOp39
 70
     1
102
RTVSPost2010Prop40
 90
        0
102
RTVSPost2010PropOp40
 70
     1
102
RTVSPost2010Prop41ColorIndex
 90
       18
102
RTVSPost2010Prop41ColorRGB
 90
        0
102
RTVSPost2010PropOp41
 70
     1
102
RTVSPost2010Prop42
 90
       50
102
RTVSPost2010PropOp42
 70
     1
102
RTVSPost2010Prop43
 90
        3
102
RTVSPost2010PropOp43
 70
     1
102
RTVSPost2010Prop44ColorIndex
 90
        5
102
RTVSPost2010Prop44ColorRGB
 90
      255
102
RTVSPost2010PropOp44
 70
     1
102
RTVSPost2010Prop45
280
     0
102
RTVSPost2010PropOp45
 70
     1
102
RTVSPost2010Prop46
 90
       50
102
RTVSPost2010PropOp46
 70
     1
102
RTVSPost2010Prop47
 90
       50
102
RTVSPost2010PropOp47
 70
     1
102
RTVSPost2010Prop48
 90
       50
102
RTVSPost2010PropOp48
 70
     1
102
RTVSPost2010Prop49
280
     0
102
RTVSPost2010PropOp49
 70
     1
102
RTVSPost2010Prop50
 90
       50
102
RTVSPost2010PropOp50
 70
     1
102
RTVSPost2010Prop51ColorIndex
 90
      256
102
RTVSPost2010Prop51ColorRGB
 90
-16777216
102
RTVSPost2010PropOp51
 70
     0
102
RTVSPost2010Prop52
140
1.0
102
RTVSPost2010PropOp52
 70
     0
102
RTVSPost2010Prop53
 90
        2
102
RTVSPost2010PropOp53
 70
     1
102
RTVSPost2010Prop54
  1
strokes_ogs.tif
102
RTVSPost2010PropOp54
 70
     1
102
RTVSPost2010Prop55
280
     0
102
RTVSPost2010PropOp55
 70
     1
102
RTVSPost2010Prop56
140
1.0
102
RTVSPost2010PropOp56
 70
     1
102
RTVSPost2010Prop57
140
1.0
102
RTVSPost2010PropOp57
 70
     1
  0
XRECORD
  5
22F02
102
{ACAD_REACTORS
330
22F01
102
}
330
22F01
100
AcDbXrecord
280
     1
102
RTVSPost2010Prop28
280
     0
102
RTVSPost2010PropOp28
 70
     1
102
RTVSPost2010Prop29
280
     1
102
RTVSPost2010PropOp29
 70
     1
102
RTVSPost2010Prop30
280
     1
102
RTVSPost2010PropOp30
 70
     1
102
RTVSPost2010Prop31
280
     0
102
RTVSPost2010PropOp31
 70
     1
102
RTVSPost2010Prop32
280
     0
102
RTVSPost2010PropOp32
 70
     1
102
RTVSPost2010Prop33
280
     0
102
RTVSPost2010PropOp33
 70
     1
102
RTVSPost2010Prop34
280
     0
102
RTVSPost2010PropOp34
 70
     1
102
RTVSPost2010Prop35
280
     0
102
RTVSPost2010PropOp35
 70
     1
102
RTVSPost2010Prop36
280
     0
102
RTVSPost2010PropOp36
 70
     1
102
RTVSPost2010Prop37
 90
       50
102
RTVSPost2010PropOp37
 70
     1
102
RTVSPost2010Prop38
140
0.0
102
RTVSPost2010PropOp38
 70
     1
102
RTVSPost2010Prop39
140
1.0
102
RTVSPost2010PropOp39
 70
     1
102
RTVSPost2010Prop40
 90
        0
102
RTVSPost2010PropOp40
 70
     1
102
RTVSPost2010Prop41ColorIndex
 90
       18
102
RTVSPost2010Prop41ColorRGB
 90
        0
102
RTVSPost2010PropOp41
 70
     1
102
RTVSPost2010Prop42
 90
       50
102
RTVSPost2010PropOp42
 70
     1
102
RTVSPost2010Prop43
 90
        3
102
RTVSPost2010PropOp43
 70
     1
102
RTVSPost2010Prop44ColorIndex
 90
        5
102
RTVSPost2010Prop44ColorRGB
 90
      255
102
RTVSPost2010PropOp44
 70
     1
102
RTVSPost2010Prop45
280
     0
102
RTVSPost2010PropOp45
 70
     1
102
RTVSPost2010Prop46
 90
       50
102
RTVSPost2010PropOp46
 70
     1
102
RTVSPost2010Prop47
 90
       50
102
RTVSPost2010PropOp47
 70
     1
102
RTVSPost2010Prop48
 90
       50
102
RTVSPost2010PropOp48
 70
     1
102
RTVSPost2010Prop49
280
     0
102
RTVSPost2010PropOp49
 70
     1
102
RTVSPost2010Prop50
 90
       50
102
RTVSPost2010PropOp50
 70
     1
102
RTVSPost2010Prop51ColorIndex
 90
      256
102
RTVSPost2010Prop51ColorRGB
 90
-16777216
102
RTVSPost2010PropOp51
 70
     0
102
RTVSPost2010Prop52
140
1.0
102
RTVSPost2010PropOp52
 70
     0
102
RTVSPost2010Prop53
 90
        2
102
RTVSPost2010PropOp53
 70
     1
102
RTVSPost2010Prop54
  1
strokes_ogs.tif
102
RTVSPost2010PropOp54
 70
     1
102
RTVSPost2010Prop55
280
     0
102
RTVSPost2010PropOp55
 70
     1
102
RTVSPost2010Prop56
140
1.0
102
RTVSPost2010PropOp56
 70
     1
102
RTVSPost2010Prop57
140
1.0
102
RTVSPost2010PropOp57
 70
     1
  0
XRECORD
  5
22F04
102
{ACAD_REACTORS
330
22F03
102
}
330
22F03
100
AcDbXrecord
280
     1
102
RTVSPost2010Prop28
280
     0
102
RTVSPost2010PropOp28
 70
     1
102
RTVSPost2010Prop29
280
     1
102
RTVSPost2010PropOp29
 70
     1
102
RTVSPost2010Prop30
280
     1
102
RTVSPost2010PropOp30
 70
     1
102
RTVSPost2010Prop31
280
     0
102
RTVSPost2010PropOp31
 70
     1
102
RTVSPost2010Prop32
280
     0
102
RTVSPost2010PropOp32
 70
     1
102
RTVSPost2010Prop33
280
     0
102
RTVSPost2010PropOp33
 70
     1
102
RTVSPost2010Prop34
280
     0
102
RTVSPost2010PropOp34
 70
     1
102
RTVSPost2010Prop35
280
     0
102
RTVSPost2010PropOp35
 70
     1
102
RTVSPost2010Prop36
280
     0
102
RTVSPost2010PropOp36
 70
     1
102
RTVSPost2010Prop37
 90
       50
102
RTVSPost2010PropOp37
 70
     1
102
RTVSPost2010Prop38
140
0.0
102
RTVSPost2010PropOp38
 70
     1
102
RTVSPost2010Prop39
140
1.0
102
RTVSPost2010PropOp39
 70
     1
102
RTVSPost2010Prop40
 90
        0
102
RTVSPost2010PropOp40
 70
     1
102
RTVSPost2010Prop41ColorIndex
 90
       18
102
RTVSPost2010Prop41ColorRGB
 90
        0
102
RTVSPost2010PropOp41
 70
     1
102
RTVSPost2010Prop42
 90
       50
102
RTVSPost2010PropOp42
 70
     1
102
RTVSPost2010Prop43
 90
        3
102
RTVSPost2010PropOp43
 70
     1
102
RTVSPost2010Prop44ColorIndex
 90
        5
102
RTVSPost2010Prop44ColorRGB
 90
      255
102
RTVSPost2010PropOp44
 70
     1
102
RTVSPost2010Prop45
280
     0
102
RTVSPost2010PropOp45
 70
     1
102
RTVSPost2010Prop46
 90
       50
102
RTVSPost2010PropOp46
 70
     1
102
RTVSPost2010Prop47
 90
       50
102
RTVSPost2010PropOp47
 70
     1
102
RTVSPost2010Prop48
 90
       50
102
RTVSPost2010PropOp48
 70
     1
102
RTVSPost2010Prop49
280
     0
102
RTVSPost2010PropOp49
 70
     1
102
RTVSPost2010Prop50
 90
       50
102
RTVSPost2010PropOp50
 70
     1
102
RTVSPost2010Prop51ColorIndex
 90
      256
102
RTVSPost2010Prop51ColorRGB
 90
-16777216
102
RTVSPost2010PropOp51
 70
     0
102
RTVSPost2010Prop52
140
1.0
102
RTVSPost2010PropOp52
 70
     0
102
RTVSPost2010Prop53
 90
        2
102
RTVSPost2010PropOp53
 70
     1
102
RTVSPost2010Prop54
  1
strokes_ogs.tif
102
RTVSPost2010PropOp54
 70
     1
102
RTVSPost2010Prop55
280
     0
102
RTVSPost2010PropOp55
 70
     1
102
RTVSPost2010Prop56
140
1.0
102
RTVSPost2010PropOp56
 70
     1
102
RTVSPost2010Prop57
140
1.0
102
RTVSPost2010PropOp57
 70
     1
  0
XRECORD
  5
22F06
102
{ACAD_REACTORS
330
22F05
102
}
330
22F05
100
AcDbXrecord
280
     1
102
RTVSPost2010Prop28
280
     0
102
RTVSPost2010PropOp28
 70
     1
102
RTVSPost2010Prop29
280
     1
102
RTVSPost2010PropOp29
 70
     1
102
RTVSPost2010Prop30
280
     1
102
RTVSPost2010PropOp30
 70
     1
102
RTVSPost2010Prop31
280
     0
102
RTVSPost2010PropOp31
 70
     1
102
RTVSPost2010Prop32
280
     0
102
RTVSPost2010PropOp32
 70
     1
102
RTVSPost2010Prop33
280
     0
102
RTVSPost2010PropOp33
 70
     1
102
RTVSPost2010Prop34
280
     0
102
RTVSPost2010PropOp34
 70
     1
102
RTVSPost2010Prop35
280
     0
102
RTVSPost2010PropOp35
 70
     1
102
RTVSPost2010Prop36
280
     0
102
RTVSPost2010PropOp36
 70
     1
102
RTVSPost2010Prop37
 90
       50
102
RTVSPost2010PropOp37
 70
     1
102
RTVSPost2010Prop38
140
0.0
102
RTVSPost2010PropOp38
 70
     1
102
RTVSPost2010Prop39
140
1.0
102
RTVSPost2010PropOp39
 70
     1
102
RTVSPost2010Prop40
 90
        0
102
RTVSPost2010PropOp40
 70
     1
102
RTVSPost2010Prop41ColorIndex
 90
       18
102
RTVSPost2010Prop41ColorRGB
 90
        0
102
RTVSPost2010PropOp41
 70
     1
102
RTVSPost2010Prop42
 90
       50
102
RTVSPost2010PropOp42
 70
     1
102
RTVSPost2010Prop43
 90
        3
102
RTVSPost2010PropOp43
 70
     1
102
RTVSPost2010Prop44ColorIndex
 90
        5
102
RTVSPost2010Prop44ColorRGB
 90
      255
102
RTVSPost2010PropOp44
 70
     1
102
RTVSPost2010Prop45
280
     0
102
RTVSPost2010PropOp45
 70
     1
102
RTVSPost2010Prop46
 90
       50
102
RTVSPost2010PropOp46
 70
     1
102
RTVSPost2010Prop47
 90
       50
102
RTVSPost2010PropOp47
 70
     1
102
RTVSPost2010Prop48
 90
       50
102
RTVSPost2010PropOp48
 70
     1
102
RTVSPost2010Prop49
280
     0
102
RTVSPost2010PropOp49
 70
     1
102
RTVSPost2010Prop50
 90
       50
102
RTVSPost2010PropOp50
 70
     1
102
RTVSPost2010Prop51ColorIndex
 90
      256
102
RTVSPost2010Prop51ColorRGB
 90
-16777216
102
RTVSPost2010PropOp51
 70
     0
102
RTVSPost2010Prop52
140
1.0
102
RTVSPost2010PropOp52
 70
     0
102
RTVSPost2010Prop53
 90
        2
102
RTVSPost2010PropOp53
 70
     1
102
RTVSPost2010Prop54
  1
strokes_ogs.tif
102
RTVSPost2010PropOp54
 70
     1
102
RTVSPost2010Prop55
280
     0
102
RTVSPost2010PropOp55
 70
     1
102
RTVSPost2010Prop56
140
1.0
102
RTVSPost2010PropOp56
 70
     1
102
RTVSPost2010Prop57
140
1.0
102
RTVSPost2010PropOp57
 70
     1
  0
XRECORD
  5
22F08
102
{ACAD_REACTORS
330
22F07
102
}
330
22F07
100
AcDbXrecord
280
     1
102
RTVSPost2010Prop28
280
     0
102
RTVSPost2010PropOp28
 70
     1
102
RTVSPost2010Prop29
280
     1
102
RTVSPost2010PropOp29
 70
     1
102
RTVSPost2010Prop30
280
     1
102
RTVSPost2010PropOp30
 70
     1
102
RTVSPost2010Prop31
280
     0
102
RTVSPost2010PropOp31
 70
     1
102
RTVSPost2010Prop32
280
     0
102
RTVSPost2010PropOp32
 70
     1
102
RTVSPost2010Prop33
280
     0
102
RTVSPost2010PropOp33
 70
     1
102
RTVSPost2010Prop34
280
     0
102
RTVSPost2010PropOp34
 70
     1
102
RTVSPost2010Prop35
280
     0
102
RTVSPost2010PropOp35
 70
     1
102
RTVSPost2010Prop36
280
     0
102
RTVSPost2010PropOp36
 70
     1
102
RTVSPost2010Prop37
 90
       50
102
RTVSPost2010PropOp37
 70
     1
102
RTVSPost2010Prop38
140
0.0
102
RTVSPost2010PropOp38
 70
     1
102
RTVSPost2010Prop39
140
1.0
102
RTVSPost2010PropOp39
 70
     1
102
RTVSPost2010Prop40
 90
        0
102
RTVSPost2010PropOp40
 70
     1
102
RTVSPost2010Prop41ColorIndex
 90
       18
102
RTVSPost2010Prop41ColorRGB
 90
        0
102
RTVSPost2010PropOp41
 70
     1
102
RTVSPost2010Prop42
 90
       50
102
RTVSPost2010PropOp42
 70
     1
102
RTVSPost2010Prop43
 90
        3
102
RTVSPost2010PropOp43
 70
     1
102
RTVSPost2010Prop44ColorIndex
 90
        5
102
RTVSPost2010Prop44ColorRGB
 90
      255
102
RTVSPost2010PropOp44
 70
     1
102
RTVSPost2010Prop45
280
     0
102
RTVSPost2010PropOp45
 70
     1
102
RTVSPost2010Prop46
 90
       50
102
RTVSPost2010PropOp46
 70
     1
102
RTVSPost2010Prop47
 90
       50
102
RTVSPost2010PropOp47
 70
     1
102
RTVSPost2010Prop48
 90
       50
102
RTVSPost2010PropOp48
 70
     1
102
RTVSPost2010Prop49
280
     0
102
RTVSPost2010PropOp49
 70
     1
102
RTVSPost2010Prop50
 90
       50
102
RTVSPost2010PropOp50
 70
     1
102
RTVSPost2010Prop51ColorIndex
 90
      256
102
RTVSPost2010Prop51ColorRGB
 90
-16777216
102
RTVSPost2010PropOp51
 70
     0
102
RTVSPost2010Prop52
140
1.0
102
RTVSPost2010PropOp52
 70
     0
102
RTVSPost2010Prop53
 90
        2
102
RTVSPost2010PropOp53
 70
     1
102
RTVSPost2010Prop54
  1
strokes_ogs.tif
102
RTVSPost2010PropOp54
 70
     1
102
RTVSPost2010Prop55
280
     0
102
RTVSPost2010PropOp55
 70
     1
102
RTVSPost2010Prop56
140
1.0
102
RTVSPost2010PropOp56
 70
     1
102
RTVSPost2010Prop57
140
1.0
102
RTVSPost2010PropOp57
 70
     1
  0
XRECORD
  5
22F0A
102
{ACAD_REACTORS
330
22F09
102
}
330
22F09
100
AcDbXrecord
280
     1
102
RTVSPost2010Prop28
280
     0
102
RTVSPost2010PropOp28
 70
     1
102
RTVSPost2010Prop29
280
     1
102
RTVSPost2010PropOp29
 70
     1
102
RTVSPost2010Prop30
280
     1
102
RTVSPost2010PropOp30
 70
     1
102
RTVSPost2010Prop31
280
     0
102
RTVSPost2010PropOp31
 70
     1
102
RTVSPost2010Prop32
280
     0
102
RTVSPost2010PropOp32
 70
     1
102
RTVSPost2010Prop33
280
     0
102
RTVSPost2010PropOp33
 70
     1
102
RTVSPost2010Prop34
280
     0
102
RTVSPost2010PropOp34
 70
     1
102
RTVSPost2010Prop35
280
     0
102
RTVSPost2010PropOp35
 70
     1
102
RTVSPost2010Prop36
280
     0
102
RTVSPost2010PropOp36
 70
     1
102
RTVSPost2010Prop37
 90
       50
102
RTVSPost2010PropOp37
 70
     1
102
RTVSPost2010Prop38
140
0.0
102
RTVSPost2010PropOp38
 70
     1
102
RTVSPost2010Prop39
140
1.0
102
RTVSPost2010PropOp39
 70
     1
102
RTVSPost2010Prop40
 90
        0
102
RTVSPost2010PropOp40
 70
     1
102
RTVSPost2010Prop41ColorIndex
 90
       18
102
RTVSPost2010Prop41ColorRGB
 90
        0
102
RTVSPost2010PropOp41
 70
     1
102
RTVSPost2010Prop42
 90
       50
102
RTVSPost2010PropOp42
 70
     1
102
RTVSPost2010Prop43
 90
        3
102
RTVSPost2010PropOp43
 70
     1
102
RTVSPost2010Prop44ColorIndex
 90
        5
102
RTVSPost2010Prop44ColorRGB
 90
      255
102
RTVSPost2010PropOp44
 70
     1
102
RTVSPost2010Prop45
280
     0
102
RTVSPost2010PropOp45
 70
     1
102
RTVSPost2010Prop46
 90
       50
102
RTVSPost2010PropOp46
 70
     1
102
RTVSPost2010Prop47
 90
       50
102
RTVSPost2010PropOp47
 70
     1
102
RTVSPost2010Prop48
 90
       50
102
RTVSPost2010PropOp48
 70
     1
102
RTVSPost2010Prop49
280
     0
102
RTVSPost2010PropOp49
 70
     1
102
RTVSPost2010Prop50
 90
       50
102
RTVSPost2010PropOp50
 70
     1
102
RTVSPost2010Prop51ColorIndex
 90
      256
102
RTVSPost2010Prop51ColorRGB
 90
-16777216
102
RTVSPost2010PropOp51
 70
     0
102
RTVSPost2010Prop52
140
1.0
102
RTVSPost2010PropOp52
 70
     0
102
RTVSPost2010Prop53
 90
        2
102
RTVSPost2010PropOp53
 70
     1
102
RTVSPost2010Prop54
  1
strokes_ogs.tif
102
RTVSPost2010PropOp54
 70
     1
102
RTVSPost2010Prop55
280
     0
102
RTVSPost2010PropOp55
 70
     1
102
RTVSPost2010Prop56
140
1.0
102
RTVSPost2010PropOp56
 70
     1
102
RTVSPost2010Prop57
140
1.0
102
RTVSPost2010PropOp57
 70
     1
  0
XRECORD
  5
22F0C
102
{ACAD_REACTORS
330
22F0B
102
}
330
22F0B
100
AcDbXrecord
280
     1
102
RTVSPost2010Prop28
280
     0
102
RTVSPost2010PropOp28
 70
     1
102
RTVSPost2010Prop29
280
     1
102
RTVSPost2010PropOp29
 70
     1
102
RTVSPost2010Prop30
280
     1
102
RTVSPost2010PropOp30
 70
     1
102
RTVSPost2010Prop31
280
     0
102
RTVSPost2010PropOp31
 70
     1
102
RTVSPost2010Prop32
280
     0
102
RTVSPost2010PropOp32
 70
     1
102
RTVSPost2010Prop33
280
     0
102
RTVSPost2010PropOp33
 70
     1
102
RTVSPost2010Prop34
280
     0
102
RTVSPost2010PropOp34
 70
     1
102
RTVSPost2010Prop35
280
     0
102
RTVSPost2010PropOp35
 70
     1
102
RTVSPost2010Prop36
280
     0
102
RTVSPost2010PropOp36
 70
     1
102
RTVSPost2010Prop37
 90
       50
102
RTVSPost2010PropOp37
 70
     1
102
RTVSPost2010Prop38
140
0.0
102
RTVSPost2010PropOp38
 70
     1
102
RTVSPost2010Prop39
140
1.0
102
RTVSPost2010PropOp39
 70
     1
102
RTVSPost2010Prop40
 90
        0
102
RTVSPost2010PropOp40
 70
     1
102
RTVSPost2010Prop41ColorIndex
 90
       18
102
RTVSPost2010Prop41ColorRGB
 90
        0
102
RTVSPost2010PropOp41
 70
     1
102
RTVSPost2010Prop42
 90
       50
102
RTVSPost2010PropOp42
 70
     1
102
RTVSPost2010Prop43
 90
        3
102
RTVSPost2010PropOp43
 70
     1
102
RTVSPost2010Prop44ColorIndex
 90
        5
102
RTVSPost2010Prop44ColorRGB
 90
      255
102
RTVSPost2010PropOp44
 70
     1
102
RTVSPost2010Prop45
280
     0
102
RTVSPost2010PropOp45
 70
     1
102
RTVSPost2010Prop46
 90
       50
102
RTVSPost2010PropOp46
 70
     1
102
RTVSPost2010Prop47
 90
       50
102
RTVSPost2010PropOp47
 70
     1
102
RTVSPost2010Prop48
 90
       50
102
RTVSPost2010PropOp48
 70
     1
102
RTVSPost2010Prop49
280
     0
102
RTVSPost2010PropOp49
 70
     1
102
RTVSPost2010Prop50
 90
       50
102
RTVSPost2010PropOp50
 70
     1
102
RTVSPost2010Prop51ColorIndex
 90
      256
102
RTVSPost2010Prop51ColorRGB
 90
-16777216
102
RTVSPost2010PropOp51
 70
     0
102
RTVSPost2010Prop52
140
1.0
102
RTVSPost2010PropOp52
 70
     0
102
RTVSPost2010Prop53
 90
        2
102
RTVSPost2010PropOp53
 70
     1
102
RTVSPost2010Prop54
  1
strokes_ogs.tif
102
RTVSPost2010PropOp54
 70
     1
102
RTVSPost2010Prop55
280
     0
102
RTVSPost2010PropOp55
 70
     1
102
RTVSPost2010Prop56
140
1.0
102
RTVSPost2010PropOp56
 70
     1
102
RTVSPost2010Prop57
140
1.0
102
RTVSPost2010PropOp57
 70
     1
  0
XRECORD
  5
22F0E
102
{ACAD_REACTORS
330
22F0D
102
}
330
22F0D
100
AcDbXrecord
280
     1
102
RTVSPost2010Prop28
280
     0
102
RTVSPost2010PropOp28
 70
     1
102
RTVSPost2010Prop29
280
     1
102
RTVSPost2010PropOp29
 70
     1
102
RTVSPost2010Prop30
280
     1
102
RTVSPost2010PropOp30
 70
     1
102
RTVSPost2010Prop31
280
     0
102
RTVSPost2010PropOp31
 70
     1
102
RTVSPost2010Prop32
280
     0
102
RTVSPost2010PropOp32
 70
     1
102
RTVSPost2010Prop33
280
     0
102
RTVSPost2010PropOp33
 70
     1
102
RTVSPost2010Prop34
280
     0
102
RTVSPost2010PropOp34
 70
     1
102
RTVSPost2010Prop35
280
     0
102
RTVSPost2010PropOp35
 70
     1
102
RTVSPost2010Prop36
280
     0
102
RTVSPost2010PropOp36
 70
     1
102
RTVSPost2010Prop37
 90
       50
102
RTVSPost2010PropOp37
 70
     1
102
RTVSPost2010Prop38
140
0.0
102
RTVSPost2010PropOp38
 70
     1
102
RTVSPost2010Prop39
140
1.0
102
RTVSPost2010PropOp39
 70
     1
102
RTVSPost2010Prop40
 90
        0
102
RTVSPost2010PropOp40
 70
     1
102
RTVSPost2010Prop41ColorIndex
 90
       18
102
RTVSPost2010Prop41ColorRGB
 90
        0
102
RTVSPost2010PropOp41
 70
     1
102
RTVSPost2010Prop42
 90
       50
102
RTVSPost2010PropOp42
 70
     1
102
RTVSPost2010Prop43
 90
        3
102
RTVSPost2010PropOp43
 70
     1
102
RTVSPost2010Prop44ColorIndex
 90
        5
102
RTVSPost2010Prop44ColorRGB
 90
      255
102
RTVSPost2010PropOp44
 70
     1
102
RTVSPost2010Prop45
280
     0
102
RTVSPost2010PropOp45
 70
     1
102
RTVSPost2010Prop46
 90
       50
102
RTVSPost2010PropOp46
 70
     1
102
RTVSPost2010Prop47
 90
       50
102
RTVSPost2010PropOp47
 70
     1
102
RTVSPost2010Prop48
 90
       50
102
RTVSPost2010PropOp48
 70
     1
102
RTVSPost2010Prop49
280
     0
102
RTVSPost2010PropOp49
 70
     1
102
RTVSPost2010Prop50
 90
       50
102
RTVSPost2010PropOp50
 70
     1
102
RTVSPost2010Prop51ColorIndex
 90
      256
102
RTVSPost2010Prop51ColorRGB
 90
-16777216
102
RTVSPost2010PropOp51
 70
     0
102
RTVSPost2010Prop52
140
1.0
102
RTVSPost2010PropOp52
 70
     0
102
RTVSPost2010Prop53
 90
        2
102
RTVSPost2010PropOp53
 70
     1
102
RTVSPost2010Prop54
  1
strokes_ogs.tif
102
RTVSPost2010PropOp54
 70
     1
102
RTVSPost2010Prop55
280
     0
102
RTVSPost2010PropOp55
 70
     1
102
RTVSPost2010Prop56
140
1.0
102
RTVSPost2010PropOp56
 70
     1
102
RTVSPost2010Prop57
140
1.0
102
RTVSPost2010PropOp57
 70
     1
  0
XRECORD
  5
22F10
102
{ACAD_REACTORS
330
22F0F
102
}
330
22F0F
100
AcDbXrecord
280
     1
102
RTVSPost2010Prop28
280
     0
102
RTVSPost2010PropOp28
 70
     1
102
RTVSPost2010Prop29
280
     1
102
RTVSPost2010PropOp29
 70
     1
102
RTVSPost2010Prop30
280
     1
102
RTVSPost2010PropOp30
 70
     1
102
RTVSPost2010Prop31
280
     0
102
RTVSPost2010PropOp31
 70
     1
102
RTVSPost2010Prop32
280
     0
102
RTVSPost2010PropOp32
 70
     1
102
RTVSPost2010Prop33
280
     0
102
RTVSPost2010PropOp33
 70
     1
102
RTVSPost2010Prop34
280
     0
102
RTVSPost2010PropOp34
 70
     1
102
RTVSPost2010Prop35
280
     0
102
RTVSPost2010PropOp35
 70
     1
102
RTVSPost2010Prop36
280
     0
102
RTVSPost2010PropOp36
 70
     1
102
RTVSPost2010Prop37
 90
       50
102
RTVSPost2010PropOp37
 70
     1
102
RTVSPost2010Prop38
140
0.0
102
RTVSPost2010PropOp38
 70
     1
102
RTVSPost2010Prop39
140
1.0
102
RTVSPost2010PropOp39
 70
     1
102
RTVSPost2010Prop40
 90
        0
102
RTVSPost2010PropOp40
 70
     1
102
RTVSPost2010Prop41ColorIndex
 90
       18
102
RTVSPost2010Prop41ColorRGB
 90
        0
102
RTVSPost2010PropOp41
 70
     1
102
RTVSPost2010Prop42
 90
       50
102
RTVSPost2010PropOp42
 70
     1
102
RTVSPost2010Prop43
 90
        3
102
RTVSPost2010PropOp43
 70
     1
102
RTVSPost2010Prop44ColorIndex
 90
        5
102
RTVSPost2010Prop44ColorRGB
 90
      255
102
RTVSPost2010PropOp44
 70
     1
102
RTVSPost2010Prop45
280
     0
102
RTVSPost2010PropOp45
 70
     1
102
RTVSPost2010Prop46
 90
       50
102
RTVSPost2010PropOp46
 70
     1
102
RTVSPost2010Prop47
 90
       50
102
RTVSPost2010PropOp47
 70
     1
102
RTVSPost2010Prop48
 90
       50
102
RTVSPost2010PropOp48
 70
     1
102
RTVSPost2010Prop49
280
     0
102
RTVSPost2010PropOp49
 70
     1
102
RTVSPost2010Prop50
 90
       50
102
RTVSPost2010PropOp50
 70
     1
102
RTVSPost2010Prop51ColorIndex
 90
      256
102
RTVSPost2010Prop51ColorRGB
 90
-16777216
102
RTVSPost2010PropOp51
 70
     0
102
RTVSPost2010Prop52
140
1.0
102
RTVSPost2010PropOp52
 70
     0
102
RTVSPost2010Prop53
 90
        2
102
RTVSPost2010PropOp53
 70
     1
102
RTVSPost2010Prop54
  1
strokes_ogs.tif
102
RTVSPost2010PropOp54
 70
     1
102
RTVSPost2010Prop55
280
     0
102
RTVSPost2010PropOp55
 70
     1
102
RTVSPost2010Prop56
140
1.0
102
RTVSPost2010PropOp56
 70
     1
102
RTVSPost2010Prop57
140
1.0
102
RTVSPost2010PropOp57
 70
     1
  0
XRECORD
  5
22F12
102
{ACAD_REACTORS
330
22F11
102
}
330
22F11
100
AcDbXrecord
280
     1
102
RTVSPost2010Prop28
280
     0
102
RTVSPost2010PropOp28
 70
     1
102
RTVSPost2010Prop29
280
     1
102
RTVSPost2010PropOp29
 70
     1
102
RTVSPost2010Prop30
280
     1
102
RTVSPost2010PropOp30
 70
     1
102
RTVSPost2010Prop31
280
     0
102
RTVSPost2010PropOp31
 70
     1
102
RTVSPost2010Prop32
280
     0
102
RTVSPost2010PropOp32
 70
     1
102
RTVSPost2010Prop33
280
     0
102
RTVSPost2010PropOp33
 70
     1
102
RTVSPost2010Prop34
280
     0
102
RTVSPost2010PropOp34
 70
     1
102
RTVSPost2010Prop35
280
     0
102
RTVSPost2010PropOp35
 70
     1
102
RTVSPost2010Prop36
280
     0
102
RTVSPost2010PropOp36
 70
     1
102
RTVSPost2010Prop37
 90
       50
102
RTVSPost2010PropOp37
 70
     1
102
RTVSPost2010Prop38
140
0.0
102
RTVSPost2010PropOp38
 70
     1
102
RTVSPost2010Prop39
140
1.0
102
RTVSPost2010PropOp39
 70
     1
102
RTVSPost2010Prop40
 90
        0
102
RTVSPost2010PropOp40
 70
     1
102
RTVSPost2010Prop41ColorIndex
 90
       18
102
RTVSPost2010Prop41ColorRGB
 90
        0
102
RTVSPost2010PropOp41
 70
     1
102
RTVSPost2010Prop42
 90
       50
102
RTVSPost2010PropOp42
 70
     1
102
RTVSPost2010Prop43
 90
        3
102
RTVSPost2010PropOp43
 70
     1
102
RTVSPost2010Prop44ColorIndex
 90
        5
102
RTVSPost2010Prop44ColorRGB
 90
      255
102
RTVSPost2010PropOp44
 70
     1
102
RTVSPost2010Prop45
280
     0
102
RTVSPost2010PropOp45
 70
     1
102
RTVSPost2010Prop46
 90
       50
102
RTVSPost2010PropOp46
 70
     1
102
RTVSPost2010Prop47
 90
       50
102
RTVSPost2010PropOp47
 70
     1
102
RTVSPost2010Prop48
 90
       50
102
RTVSPost2010PropOp48
 70
     1
102
RTVSPost2010Prop49
280
     0
102
RTVSPost2010PropOp49
 70
     1
102
RTVSPost2010Prop50
 90
       50
102
RTVSPost2010PropOp50
 70
     1
102
RTVSPost2010Prop51ColorIndex
 90
      256
102
RTVSPost2010Prop51ColorRGB
 90
-16777216
102
RTVSPost2010PropOp51
 70
     0
102
RTVSPost2010Prop52
140
1.0
102
RTVSPost2010PropOp52
 70
     0
102
RTVSPost2010Prop53
 90
        2
102
RTVSPost2010PropOp53
 70
     1
102
RTVSPost2010Prop54
  1
strokes_ogs.tif
102
RTVSPost2010PropOp54
 70
     1
102
RTVSPost2010Prop55
280
     0
102
RTVSPost2010PropOp55
 70
     1
102
RTVSPost2010Prop56
140
1.0
102
RTVSPost2010PropOp56
 70
     1
102
RTVSPost2010Prop57
140
1.0
102
RTVSPost2010PropOp57
 70
     1
  0
XRECORD
  5
22F14
102
{ACAD_REACTORS
330
22F13
102
}
330
22F13
100
AcDbXrecord
280
     1
102
RTVSPost2010Prop28
280
     0
102
RTVSPost2010PropOp28
 70
     1
102
RTVSPost2010Prop29
280
     1
102
RTVSPost2010PropOp29
 70
     1
102
RTVSPost2010Prop30
280
     1
102
RTVSPost2010PropOp30
 70
     1
102
RTVSPost2010Prop31
280
     0
102
RTVSPost2010PropOp31
 70
     1
102
RTVSPost2010Prop32
280
     0
102
RTVSPost2010PropOp32
 70
     1
102
RTVSPost2010Prop33
280
     0
102
RTVSPost2010PropOp33
 70
     1
102
RTVSPost2010Prop34
280
     0
102
RTVSPost2010PropOp34
 70
     1
102
RTVSPost2010Prop35
280
     0
102
RTVSPost2010PropOp35
 70
     1
102
RTVSPost2010Prop36
280
     0
102
RTVSPost2010PropOp36
 70
     1
102
RTVSPost2010Prop37
 90
       50
102
RTVSPost2010PropOp37
 70
     1
102
RTVSPost2010Prop38
140
0.0
102
RTVSPost2010PropOp38
 70
     1
102
RTVSPost2010Prop39
140
1.0
102
RTVSPost2010PropOp39
 70
     1
102
RTVSPost2010Prop40
 90
        0
102
RTVSPost2010PropOp40
 70
     1
102
RTVSPost2010Prop41ColorIndex
 90
       18
102
RTVSPost2010Prop41ColorRGB
 90
        0
102
RTVSPost2010PropOp41
 70
     1
102
RTVSPost2010Prop42
 90
       50
102
RTVSPost2010PropOp42
 70
     1
102
RTVSPost2010Prop43
 90
        3
102
RTVSPost2010PropOp43
 70
     1
102
RTVSPost2010Prop44ColorIndex
 90
        5
102
RTVSPost2010Prop44ColorRGB
 90
      255
102
RTVSPost2010PropOp44
 70
     1
102
RTVSPost2010Prop45
280
     0
102
RTVSPost2010PropOp45
 70
     1
102
RTVSPost2010Prop46
 90
       50
102
RTVSPost2010PropOp46
 70
     1
102
RTVSPost2010Prop47
 90
       50
102
RTVSPost2010PropOp47
 70
     1
102
RTVSPost2010Prop48
 90
       50
102
RTVSPost2010PropOp48
 70
     1
102
RTVSPost2010Prop49
280
     0
102
RTVSPost2010PropOp49
 70
     1
102
RTVSPost2010Prop50
 90
       50
102
RTVSPost2010PropOp50
 70
     1
102
RTVSPost2010Prop51ColorIndex
 90
      256
102
RTVSPost2010Prop51ColorRGB
 90
-16777216
102
RTVSPost2010PropOp51
 70
     0
102
RTVSPost2010Prop52
140
1.0
102
RTVSPost2010PropOp52
 70
     0
102
RTVSPost2010Prop53
 90
        2
102
RTVSPost2010PropOp53
 70
     1
102
RTVSPost2010Prop54
  1
strokes_ogs.tif
102
RTVSPost2010PropOp54
 70
     1
102
RTVSPost2010Prop55
280
     0
102
RTVSPost2010PropOp55
 70
     1
102
RTVSPost2010Prop56
140
1.0
102
RTVSPost2010PropOp56
 70
     1
102
RTVSPost2010Prop57
140
1.0
102
RTVSPost2010PropOp57
 70
     1
  0
XRECORD
  5
22F16
102
{ACAD_REACTORS
330
22F15
102
}
330
22F15
100
AcDbXrecord
280
     1
102
RTVSPost2010Prop28
280
     0
102
RTVSPost2010PropOp28
 70
     1
102
RTVSPost2010Prop29
280
     1
102
RTVSPost2010PropOp29
 70
     1
102
RTVSPost2010Prop30
280
     1
102
RTVSPost2010PropOp30
 70
     1
102
RTVSPost2010Prop31
280
     0
102
RTVSPost2010PropOp31
 70
     1
102
RTVSPost2010Prop32
280
     0
102
RTVSPost2010PropOp32
 70
     1
102
RTVSPost2010Prop33
280
     0
102
RTVSPost2010PropOp33
 70
     1
102
RTVSPost2010Prop34
280
     0
102
RTVSPost2010PropOp34
 70
     1
102
RTVSPost2010Prop35
280
     0
102
RTVSPost2010PropOp35
 70
     1
102
RTVSPost2010Prop36
280
     0
102
RTVSPost2010PropOp36
 70
     1
102
RTVSPost2010Prop37
 90
       50
102
RTVSPost2010PropOp37
 70
     1
102
RTVSPost2010Prop38
140
0.0
102
RTVSPost2010PropOp38
 70
     1
102
RTVSPost2010Prop39
140
1.0
102
RTVSPost2010PropOp39
 70
     1
102
RTVSPost2010Prop40
 90
        0
102
RTVSPost2010PropOp40
 70
     1
102
RTVSPost2010Prop41ColorIndex
 90
       18
102
RTVSPost2010Prop41ColorRGB
 90
        0
102
RTVSPost2010PropOp41
 70
     1
102
RTVSPost2010Prop42
 90
       50
102
RTVSPost2010PropOp42
 70
     1
102
RTVSPost2010Prop43
 90
        3
102
RTVSPost2010PropOp43
 70
     1
102
RTVSPost2010Prop44ColorIndex
 90
        5
102
RTVSPost2010Prop44ColorRGB
 90
      255
102
RTVSPost2010PropOp44
 70
     1
102
RTVSPost2010Prop45
280
     0
102
RTVSPost2010PropOp45
 70
     1
102
RTVSPost2010Prop46
 90
       50
102
RTVSPost2010PropOp46
 70
     1
102
RTVSPost2010Prop47
 90
       50
102
RTVSPost2010PropOp47
 70
     1
102
RTVSPost2010Prop48
 90
       50
102
RTVSPost2010PropOp48
 70
     1
102
RTVSPost2010Prop49
280
     0
102
RTVSPost2010PropOp49
 70
     1
102
RTVSPost2010Prop50
 90
       50
102
RTVSPost2010PropOp50
 70
     1
102
RTVSPost2010Prop51ColorIndex
 90
      256
102
RTVSPost2010Prop51ColorRGB
 90
-16777216
102
RTVSPost2010PropOp51
 70
     0
102
RTVSPost2010Prop52
140
1.0
102
RTVSPost2010PropOp52
 70
     0
102
RTVSPost2010Prop53
 90
        2
102
RTVSPost2010PropOp53
 70
     1
102
RTVSPost2010Prop54
  1
strokes_ogs.tif
102
RTVSPost2010PropOp54
 70
     1
102
RTVSPost2010Prop55
280
     0
102
RTVSPost2010PropOp55
 70
     1
102
RTVSPost2010Prop56
140
1.0
102
RTVSPost2010PropOp56
 70
     1
102
RTVSPost2010Prop57
140
1.0
102
RTVSPost2010PropOp57
 70
     1
  0
XRECORD
  5
22F18
102
{ACAD_REACTORS
330
22F17
102
}
330
22F17
100
AcDbXrecord
280
     1
102
RTVSPost2010Prop28
280
     0
102
RTVSPost2010PropOp28
 70
     1
102
RTVSPost2010Prop29
280
     1
102
RTVSPost2010PropOp29
 70
     1
102
RTVSPost2010Prop30
280
     1
102
RTVSPost2010PropOp30
 70
     1
102
RTVSPost2010Prop31
280
     0
102
RTVSPost2010PropOp31
 70
     1
102
RTVSPost2010Prop32
280
     0
102
RTVSPost2010PropOp32
 70
     1
102
RTVSPost2010Prop33
280
     0
102
RTVSPost2010PropOp33
 70
     1
102
RTVSPost2010Prop34
280
     0
102
RTVSPost2010PropOp34
 70
     1
102
RTVSPost2010Prop35
280
     0
102
RTVSPost2010PropOp35
 70
     1
102
RTVSPost2010Prop36
280
     0
102
RTVSPost2010PropOp36
 70
     1
102
RTVSPost2010Prop37
 90
       50
102
RTVSPost2010PropOp37
 70
     1
102
RTVSPost2010Prop38
140
0.0
102
RTVSPost2010PropOp38
 70
     1
102
RTVSPost2010Prop39
140
1.0
102
RTVSPost2010PropOp39
 70
     1
102
RTVSPost2010Prop40
 90
        0
102
RTVSPost2010PropOp40
 70
     1
102
RTVSPost2010Prop41ColorIndex
 90
       18
102
RTVSPost2010Prop41ColorRGB
 90
        0
102
RTVSPost2010PropOp41
 70
     1
102
RTVSPost2010Prop42
 90
       50
102
RTVSPost2010PropOp42
 70
     1
102
RTVSPost2010Prop43
 90
        3
102
RTVSPost2010PropOp43
 70
     1
102
RTVSPost2010Prop44ColorIndex
 90
        5
102
RTVSPost2010Prop44ColorRGB
 90
      255
102
RTVSPost2010PropOp44
 70
     1
102
RTVSPost2010Prop45
280
     0
102
RTVSPost2010PropOp45
 70
     1
102
RTVSPost2010Prop46
 90
       50
102
RTVSPost2010PropOp46
 70
     1
102
RTVSPost2010Prop47
 90
       50
102
RTVSPost2010PropOp47
 70
     1
102
RTVSPost2010Prop48
 90
       50
102
RTVSPost2010PropOp48
 70
     1
102
RTVSPost2010Prop49
280
     0
102
RTVSPost2010PropOp49
 70
     1
102
RTVSPost2010Prop50
 90
       50
102
RTVSPost2010PropOp50
 70
     1
102
RTVSPost2010Prop51ColorIndex
 90
      256
102
RTVSPost2010Prop51ColorRGB
 90
-16777216
102
RTVSPost2010PropOp51
 70
     0
102
RTVSPost2010Prop52
140
1.0
102
RTVSPost2010PropOp52
 70
     0
102
RTVSPost2010Prop53
 90
        2
102
RTVSPost2010PropOp53
 70
     1
102
RTVSPost2010Prop54
  1
strokes_ogs.tif
102
RTVSPost2010PropOp54
 70
     1
102
RTVSPost2010Prop55
280
     0
102
RTVSPost2010PropOp55
 70
     1
102
RTVSPost2010Prop56
140
1.0
102
RTVSPost2010PropOp56
 70
     1
102
RTVSPost2010Prop57
140
1.0
102
RTVSPost2010PropOp57
 70
     1
  0
XRECORD
  5
22F1A
102
{ACAD_REACTORS
330
22F19
102
}
330
22F19
100
AcDbXrecord
280
     1
102
RTVSPost2010Prop28
280
     0
102
RTVSPost2010PropOp28
 70
     1
102
RTVSPost2010Prop29
280
     1
102
RTVSPost2010PropOp29
 70
     1
102
RTVSPost2010Prop30
280
     1
102
RTVSPost2010PropOp30
 70
     1
102
RTVSPost2010Prop31
280
     0
102
RTVSPost2010PropOp31
 70
     1
102
RTVSPost2010Prop32
280
     0
102
RTVSPost2010PropOp32
 70
     1
102
RTVSPost2010Prop33
280
     0
102
RTVSPost2010PropOp33
 70
     1
102
RTVSPost2010Prop34
280
     0
102
RTVSPost2010PropOp34
 70
     1
102
RTVSPost2010Prop35
280
     0
102
RTVSPost2010PropOp35
 70
     1
102
RTVSPost2010Prop36
280
     0
102
RTVSPost2010PropOp36
 70
     1
102
RTVSPost2010Prop37
 90
       50
102
RTVSPost2010PropOp37
 70
     1
102
RTVSPost2010Prop38
140
0.0
102
RTVSPost2010PropOp38
 70
     1
102
RTVSPost2010Prop39
140
1.0
102
RTVSPost2010PropOp39
 70
     1
102
RTVSPost2010Prop40
 90
        0
102
RTVSPost2010PropOp40
 70
     1
102
RTVSPost2010Prop41ColorIndex
 90
       18
102
RTVSPost2010Prop41ColorRGB
 90
        0
102
RTVSPost2010PropOp41
 70
     1
102
RTVSPost2010Prop42
 90
       50
102
RTVSPost2010PropOp42
 70
     1
102
RTVSPost2010Prop43
 90
        3
102
RTVSPost2010PropOp43
 70
     1
102
RTVSPost2010Prop44ColorIndex
 90
        5
102
RTVSPost2010Prop44ColorRGB
 90
      255
102
RTVSPost2010PropOp44
 70
     1
102
RTVSPost2010Prop45
280
     0
102
RTVSPost2010PropOp45
 70
     1
102
RTVSPost2010Prop46
 90
       50
102
RTVSPost2010PropOp46
 70
     1
102
RTVSPost2010Prop47
 90
       50
102
RTVSPost2010PropOp47
 70
     1
102
RTVSPost2010Prop48
 90
       50
102
RTVSPost2010PropOp48
 70
     1
102
RTVSPost2010Prop49
280
     0
102
RTVSPost2010PropOp49
 70
     1
102
RTVSPost2010Prop50
 90
       50
102
RTVSPost2010PropOp50
 70
     1
102
RTVSPost2010Prop51ColorIndex
 90
      256
102
RTVSPost2010Prop51ColorRGB
 90
-16777216
102
RTVSPost2010PropOp51
 70
     0
102
RTVSPost2010Prop52
140
1.0
102
RTVSPost2010PropOp52
 70
     0
102
RTVSPost2010Prop53
 90
        2
102
RTVSPost2010PropOp53
 70
     1
102
RTVSPost2010Prop54
  1
strokes_ogs.tif
102
RTVSPost2010PropOp54
 70
     1
102
RTVSPost2010Prop55
280
     0
102
RTVSPost2010PropOp55
 70
     1
102
RTVSPost2010Prop56
140
1.0
102
RTVSPost2010PropOp56
 70
     1
102
RTVSPost2010Prop57
140
1.0
102
RTVSPost2010PropOp57
 70
     1
  0
XRECORD
  5
22F1C
102
{ACAD_REACTORS
330
22F1B
102
}
330
22F1B
100
AcDbXrecord
280
     1
102
RTVSPost2010Prop28
280
     0
102
RTVSPost2010PropOp28
 70
     1
102
RTVSPost2010Prop29
280
     1
102
RTVSPost2010PropOp29
 70
     1
102
RTVSPost2010Prop30
280
     1
102
RTVSPost2010PropOp30
 70
     1
102
RTVSPost2010Prop31
280
     0
102
RTVSPost2010PropOp31
 70
     1
102
RTVSPost2010Prop32
280
     0
102
RTVSPost2010PropOp32
 70
     1
102
RTVSPost2010Prop33
280
     0
102
RTVSPost2010PropOp33
 70
     1
102
RTVSPost2010Prop34
280
     0
102
RTVSPost2010PropOp34
 70
     1
102
RTVSPost2010Prop35
280
     0
102
RTVSPost2010PropOp35
 70
     1
102
RTVSPost2010Prop36
280
     0
102
RTVSPost2010PropOp36
 70
     1
102
RTVSPost2010Prop37
 90
       50
102
RTVSPost2010PropOp37
 70
     1
102
RTVSPost2010Prop38
140
0.0
102
RTVSPost2010PropOp38
 70
     1
102
RTVSPost2010Prop39
140
1.0
102
RTVSPost2010PropOp39
 70
     1
102
RTVSPost2010Prop40
 90
        0
102
RTVSPost2010PropOp40
 70
     1
102
RTVSPost2010Prop41ColorIndex
 90
       18
102
RTVSPost2010Prop41ColorRGB
 90
        0
102
RTVSPost2010PropOp41
 70
     1
102
RTVSPost2010Prop42
 90
       50
102
RTVSPost2010PropOp42
 70
     1
102
RTVSPost2010Prop43
 90
        3
102
RTVSPost2010PropOp43
 70
     1
102
RTVSPost2010Prop44ColorIndex
 90
        5
102
RTVSPost2010Prop44ColorRGB
 90
      255
102
RTVSPost2010PropOp44
 70
     1
102
RTVSPost2010Prop45
280
     0
102
RTVSPost2010PropOp45
 70
     1
102
RTVSPost2010Prop46
 90
       50
102
RTVSPost2010PropOp46
 70
     1
102
RTVSPost2010Prop47
 90
       50
102
RTVSPost2010PropOp47
 70
     1
102
RTVSPost2010Prop48
 90
       50
102
RTVSPost2010PropOp48
 70
     1
102
RTVSPost2010Prop49
280
     0
102
RTVSPost2010PropOp49
 70
     1
102
RTVSPost2010Prop50
 90
       50
102
RTVSPost2010PropOp50
 70
     1
102
RTVSPost2010Prop51ColorIndex
 90
      256
102
RTVSPost2010Prop51ColorRGB
 90
-16777216
102
RTVSPost2010PropOp51
 70
     0
102
RTVSPost2010Prop52
140
1.0
102
RTVSPost2010PropOp52
 70
     0
102
RTVSPost2010Prop53
 90
        2
102
RTVSPost2010PropOp53
 70
     1
102
RTVSPost2010Prop54
  1
strokes_ogs.tif
102
RTVSPost2010PropOp54
 70
     1
102
RTVSPost2010Prop55
280
     0
102
RTVSPost2010PropOp55
 70
     1
102
RTVSPost2010Prop56
140
1.0
102
RTVSPost2010PropOp56
 70
     1
102
RTVSPost2010Prop57
140
1.0
102
RTVSPost2010PropOp57
 70
     1
  0
XRECORD
  5
22F1E
102
{ACAD_REACTORS
330
22F1D
102
}
330
22F1D
100
AcDbXrecord
280
     1
102
RTVSPost2010Prop28
280
     0
102
RTVSPost2010PropOp28
 70
     1
102
RTVSPost2010Prop29
280
     1
102
RTVSPost2010PropOp29
 70
     1
102
RTVSPost2010Prop30
280
     1
102
RTVSPost2010PropOp30
 70
     1
102
RTVSPost2010Prop31
280
     0
102
RTVSPost2010PropOp31
 70
     1
102
RTVSPost2010Prop32
280
     0
102
RTVSPost2010PropOp32
 70
     1
102
RTVSPost2010Prop33
280
     0
102
RTVSPost2010PropOp33
 70
     1
102
RTVSPost2010Prop34
280
     0
102
RTVSPost2010PropOp34
 70
     1
102
RTVSPost2010Prop35
280
     0
102
RTVSPost2010PropOp35
 70
     1
102
RTVSPost2010Prop36
280
     0
102
RTVSPost2010PropOp36
 70
     1
102
RTVSPost2010Prop37
 90
       50
102
RTVSPost2010PropOp37
 70
     1
102
RTVSPost2010Prop38
140
0.0
102
RTVSPost2010PropOp38
 70
     1
102
RTVSPost2010Prop39
140
1.0
102
RTVSPost2010PropOp39
 70
     1
102
RTVSPost2010Prop40
 90
        0
102
RTVSPost2010PropOp40
 70
     1
102
RTVSPost2010Prop41ColorIndex
 90
       18
102
RTVSPost2010Prop41ColorRGB
 90
        0
102
RTVSPost2010PropOp41
 70
     1
102
RTVSPost2010Prop42
 90
       50
102
RTVSPost2010PropOp42
 70
     1
102
RTVSPost2010Prop43
 90
        3
102
RTVSPost2010PropOp43
 70
     1
102
RTVSPost2010Prop44ColorIndex
 90
        5
102
RTVSPost2010Prop44ColorRGB
 90
      255
102
RTVSPost2010PropOp44
 70
     1
102
RTVSPost2010Prop45
280
     0
102
RTVSPost2010PropOp45
 70
     1
102
RTVSPost2010Prop46
 90
       50
102
RTVSPost2010PropOp46
 70
     1
102
RTVSPost2010Prop47
 90
       50
102
RTVSPost2010PropOp47
 70
     1
102
RTVSPost2010Prop48
 90
       50
102
RTVSPost2010PropOp48
 70
     1
102
RTVSPost2010Prop49
280
     0
102
RTVSPost2010PropOp49
 70
     1
102
RTVSPost2010Prop50
 90
       50
102
RTVSPost2010PropOp50
 70
     1
102
RTVSPost2010Prop51ColorIndex
 90
      256
102
RTVSPost2010Prop51ColorRGB
 90
-16777216
102
RTVSPost2010PropOp51
 70
     0
102
RTVSPost2010Prop52
140
1.0
102
RTVSPost2010PropOp52
 70
     0
102
RTVSPost2010Prop53
 90
        2
102
RTVSPost2010PropOp53
 70
     1
102
RTVSPost2010Prop54
  1
strokes_ogs.tif
102
RTVSPost2010PropOp54
 70
     1
102
RTVSPost2010Prop55
280
     0
102
RTVSPost2010PropOp55
 70
     1
102
RTVSPost2010Prop56
140
1.0
102
RTVSPost2010PropOp56
 70
     1
102
RTVSPost2010Prop57
140
1.0
102
RTVSPost2010PropOp57
 70
     1
  0
XRECORD
  5
22F20
102
{ACAD_REACTORS
330
22F1F
102
}
330
22F1F
100
AcDbXrecord
280
     1
102
RTVSPost2010Prop28
280
     0
102
RTVSPost2010PropOp28
 70
     1
102
RTVSPost2010Prop29
280
     1
102
RTVSPost2010PropOp29
 70
     1
102
RTVSPost2010Prop30
280
     1
102
RTVSPost2010PropOp30
 70
     1
102
RTVSPost2010Prop31
280
     0
102
RTVSPost2010PropOp31
 70
     1
102
RTVSPost2010Prop32
280
     0
102
RTVSPost2010PropOp32
 70
     1
102
RTVSPost2010Prop33
280
     0
102
RTVSPost2010PropOp33
 70
     1
102
RTVSPost2010Prop34
280
     0
102
RTVSPost2010PropOp34
 70
     1
102
RTVSPost2010Prop35
280
     0
102
RTVSPost2010PropOp35
 70
     1
102
RTVSPost2010Prop36
280
     0
102
RTVSPost2010PropOp36
 70
     1
102
RTVSPost2010Prop37
 90
       50
102
RTVSPost2010PropOp37
 70
     1
102
RTVSPost2010Prop38
140
0.0
102
RTVSPost2010PropOp38
 70
     1
102
RTVSPost2010Prop39
140
1.0
102
RTVSPost2010PropOp39
 70
     1
102
RTVSPost2010Prop40
 90
        0
102
RTVSPost2010PropOp40
 70
     1
102
RTVSPost2010Prop41ColorIndex
 90
       18
102
RTVSPost2010Prop41ColorRGB
 90
        0
102
RTVSPost2010PropOp41
 70
     1
102
RTVSPost2010Prop42
 90
       50
102
RTVSPost2010PropOp42
 70
     1
102
RTVSPost2010Prop43
 90
        3
102
RTVSPost2010PropOp43
 70
     1
102
RTVSPost2010Prop44ColorIndex
 90
        5
102
RTVSPost2010Prop44ColorRGB
 90
      255
102
RTVSPost2010PropOp44
 70
     1
102
RTVSPost2010Prop45
280
     0
102
RTVSPost2010PropOp45
 70
     1
102
RTVSPost2010Prop46
 90
       50
102
RTVSPost2010PropOp46
 70
     1
102
RTVSPost2010Prop47
 90
       50
102
RTVSPost2010PropOp47
 70
     1
102
RTVSPost2010Prop48
 90
       50
102
RTVSPost2010PropOp48
 70
     1
102
RTVSPost2010Prop49
280
     0
102
RTVSPost2010PropOp49
 70
     1
102
RTVSPost2010Prop50
 90
       50
102
RTVSPost2010PropOp50
 70
     1
102
RTVSPost2010Prop51ColorIndex
 90
      256
102
RTVSPost2010Prop51ColorRGB
 90
-16777216
102
RTVSPost2010PropOp51
 70
     0
102
RTVSPost2010Prop52
140
1.0
102
RTVSPost2010PropOp52
 70
     0
102
RTVSPost2010Prop53
 90
        2
102
RTVSPost2010PropOp53
 70
     1
102
RTVSPost2010Prop54
  1
strokes_ogs.tif
102
RTVSPost2010PropOp54
 70
     1
102
RTVSPost2010Prop55
280
     0
102
RTVSPost2010PropOp55
 70
     1
102
RTVSPost2010Prop56
140
1.0
102
RTVSPost2010PropOp56
 70
     1
102
RTVSPost2010Prop57
140
1.0
102
RTVSPost2010PropOp57
 70
     1
  0
ENDSEC
  0
SECTION
  2
THUMBNAILIMAGE
 90
    16364
310
28000000B4000000550000000100080000000000C43B000000000000000000000001000000010000FFFFFF000000FF0000FFFF0000FF0000FFFF0000FF000000FF00FF000000000080808000C0C0C0000000FF007F7FFF000000A5005252A50000007F003F3F7F0000004C0026264C000000260013132600003FFF007F9FFF
310
000029A5005267A500001F7F003F4F7F0000134C00262F4C000009260013172600007FFF007FBFFF000052A500527CA500003F7F003F5F7F0000264C0026394C0000132600131C260000BFFF007FDFFF00007CA5005291A500005F7F003F6F7F0000394C0026424C00001C26001321260000FFFF007FFFFF0000A5A50052A5
310
A500007F7F003F7F7F00004C4C00264C4C00002626001326260000FFBF007FFFDF0000A57C0052A59100007F5F003F7F6F00004C3900264C420000261C001326210000FF7F007FFFBF0000A5520052A57C00007F3F003F7F5F00004C2600264C39000026130013261C0000FF3F007FFF9F0000A5290052A56700007F1F003F
310
7F4F00004C1300264C2F00002609001326170000FF00007FFF7F0000A5000052A55200007F00003F7F3F00004C0000264C260000260000132613003FFF00009FFF7F0029A5000067A552001F7F00004F7F3F00134C00002F4C260009260000172613007FFF0000BFFF7F0052A500007CA552003F7F00005F7F3F00264C0000
310
394C2600132600001C261300BFFF0000DFFF7F007CA5000091A552005F7F00006F7F3F00394C0000424C26001C26000021261300FFFF0000FFFF7F00A5A50000A5A552007F7F00007F7F3F004C4C00004C4C26002626000026261300FFBF0000FFDF7F00A57C0000A59152007F5F00007F6F3F004C3900004C422600261C00
310
0026211300FF7F0000FFBF7F00A5520000A57C52007F3F00007F5F3F004C2600004C39260026130000261C1300FF3F0000FF9F7F00A5290000A56752007F1F00007F4F3F004C1300004C2F26002609000026171300FF000000FF7F7F00A5000000A55252007F0000007F3F3F004C0000004C2626002600000026131300FF00
310
3F00FF7F9F00A5002900A55267007F001F007F3F4F004C0013004C262F002600090026131700FF007F00FF7FBF00A5005200A5527C007F003F007F3F5F004C0026004C2639002600130026131C00FF00BF00FF7FDF00A5007C00A55291007F005F007F3F6F004C0039004C26420026001C0026132100FF00FF00FF7FFF00A5
310
00A500A552A5007F007F007F3F7F004C004C004C264C002600260026132600BF00FF00DF7FFF007C00A5009152A5005F007F006F3F7F0039004C0042264C001C002600211326007F00FF00BF7FFF005200A5007C52A5003F007F005F3F7F0026004C0039264C00130026001C1326003F00FF009F7FFF002900A5006752A500
310
1F007F004F3F7F0013004C002F264C000900260017132600000000002D2D2D005B5B5B0089898900B7B7B700B3B3B30000000000000000000000000000000000000000000000000000000000000000000000000000000000000000000000000000000000000000000000000000000000000000000000000000000000000000
310
00000000000000000000000000000000000000000000000000000000000000000000000000000000000000000000000000000000000000000000000000000000000000000000000000000000000000000000000000000000000000000000000000000000000000000000000000000000000000000000000000000000000000
310
00000000000000000000000000000000000000000000000000000000000000000000000000000000000000000000000000000000000000000000000000000000000000000000000000000000000000000000000000000000000000000000000000000000000000000000000000000000000000000000000000000000000000
310
00000000000000000000000000000000000000000000000000000000000000000000000000000000000000000000000000000000000000000000000000000000000000000000000000000000000000000000000000000000000000000000000000000000000000000000000000000000000000000000000000000000000000
310
00000000000000000000000000000000000000000000000000000000000000000000000000000000000000000000000000000000000000000000000000000000000000000000000000000000000000000000000000000000000000000000000000000000000000000000000000000000000000000000000000000000000000
310
00000000000000000000000000000000000000000000000000000000000000000000000000000000000000000000000000000000000000000000000000000000000000000000000000000000000000000000000000000000000000000000000000000000000000000000000000000000000000000000000000000000000000
310
00000000000000000000000000000000000000000000000000000000000000000000000000000000000000000000000000000000000000000000000000000000000000000000000000000000000000000000000000000000000000000000000000000000000000000000000000000000000000000000000000000000000000
310
00000000000000000000000000000000000000000000000000000000000000000000000000000000000000000000000000000000000000000000000000000000000000000000000000000000000000000000000000000000000000000000000000000000000000000000000000000000000000000000000000000000000000
310
00000000000000000000000000000000000000000000000000000000000000000000000000000000000000000000000000000000000000000000000000000000000000000000000000000000000000000000000000000000000000000000000000000000000000000000000000000000000000000000000000000000000000
310
00000000000000000000000000000000000000000000000000000000000000000000000000000000000000000000000000000000000000000000000000000000000000000000000000000000000000000000000000000000000000000000000000000000000000000000000000000000000000000000000000000000000000
310
00000000000000000000000000000000000000000000000000000000000000000000000000000000000000000000000000000000000000000000000000000000000000000000000000000000000000000000000000000000000000000000000000000000000000000000000000000000000000000000000000000000000000
310
00000000000000000000000000000000000000000000000000000000000000000000000000000000000000000000000000000000000000000000000000000000000000000000000000000000000000000000000000000000000000000000000000000000000000000000000000000000000000000000000000000000000000
310
00000000000000000000000000000000000000000000000000000000000000000000000000000000000000000000000000000000000000000000000000000000000000000000000000000000000000000000000000000000000000000000000000000000000000000000000000000000000000000000000000000000000000
310
00000000000000000000000000000000000000000000000000000000000000000000000000000000000000000000000000000000000000000000000000000000000000000000000000000000000000000000000000000000000000000000000000000000000000000000000000000000000000000000000000000000000000
310
00000000000000000000000000000000000000000000000000000000000000000000000000000000000000000000000000000000000000000000000000000000000000000000000000000000000000000000000000000000000000000000000000000000000000000000000000000000000000000000000000000000000000
310
00000000000000000000000000000000000000000000000000000000000000000000000000000000000000000000000000000000000000000000000000000000000000000000000000000000000000000000000000000000000000000000000000000000000000000000000000000000000000000000000000000000000000
310
00000000000000000000000000000000000000000000000000000000000000000000000000000000000000000000000000000000000000000000000000000000000000000000000000000000000000000000000000000000000000000000000000000000000000000000000000000000000000000000000000000000000000
310
00000000000000000000000000000000000000000000000000000000000000000000000000000000000000000000000000000000000000000000000000000000000000000000000000000000000000000000000000000707070707070707070707070707070707070707070707070707070707070707070707070707070707
310
07070707070707070707070707070707070707070707070707070707070707070707070700000000000000000000000000000000000000000000000000000000000000000000000000000000000000000000000000000000000000000000000000000000000000000000000000000000000000000000000000000000000000
310
00000000000000000000000007000007070000070000070000070707070707070707070707070707070707070707070707070000000000000707070707070707070707000707070007070707070707070707070707070707070000000000000000000000000000000000000000000000000000000000000000000000000000
310
00000000000000000000000000000000000000000000000000000000000000000000000000000000000000000000000000000000000000000000000000000000000700000707000007000007000007070707070707070707070707070707070707070700070707000007070000070707070707070707070707070707070700
310
00070707070707000000070707070700000000000000000000000000000000000000000000000000000000000000000000000000000000000000000000000000000000000000000000000000000000000000000000000000000000000000000000000000000000000000000000000000000000000000070707070707070700
310
07070000070007070700000000070000000000000000070707000707070000000000000707070707070707070707070707070707070707070707070707070707070707070000000000000000000000000000000000000000000000000000000000000000000000000000000000000000000000000000000000000000000000
310
00000000000000000000000000000000000000000000000000000000000000000000000000000000000000000707070707070707070707070707070707070707070707070707070707070707070707070707070707070707070707070707070707070707070707070707070707070707070707070707070707000000000000
310
00000000000000000000000000000000000000000000000000000000000000000000000000000000000000000000000000000000000000000000000000000000000000000000000000000000000000000000000000000000000000000000000000070000000000000000000000000000000000000000000000000000000000
310
00000000000000000000000000000000000000000000000000000000000000000000000000000000000000000000070000000000000000000000000000000000000000000000000000000000000000000000000000000000000000000000000000000000000000000000000000000000000000000000000000000000000000
310
00000000000000000000000000000000000000000000000700000000000000000000000000000000000000000000000000000000000000000000000000000000000000000000000000000000000000000000000000000000000000000000000000000007000000000000000000000000000000000000000000000000000000
310
00000000000000000000000000000000000000000000000000000000000000000000000000000000000000000000000000000000000000000000000000000000000000000000000000000000070000000000000000000000000000000000000000000000000000000000000000000000000000000000000000000000000000
310
00000000000000000000000000000000000000000000000000070000000000000000000000000000000000000000000000000000000000000000000000000000000000000000000000000000000000000000000000000000000000000000000000000000000000000000000000000000000000000000000000000000000000
310
00000700000000000000000000000000000000000000000000000000000000000000000000000000000000000000000000000000000000000000000000000000000000000000000000000000000007000000000000000000000000000000000000000000000000000000000000000000000000000000000000000000000000
310
00000000000000000000000000000000000000000000000000000000000000000000000000000000000000000000000000000000000000070000000000000000000000000000000000000000000000000000000000000000000000000000000000000000000000000000000000000000000000000000000000000000000000
310
00000000070000000000000000000000000000000000000000000000000000000000000000000000000000000000000000000000000000000000000000000000000000000000000000000000000000000000000000000000000000000000000000000000000000000000000007000000000000000000000000000000000000
310
00000000000000000000000000000000000000000000000000000000000000000000000000000000000000000000000000000000000000000007000000000000000000000000000000000000000000000000000000000000000000000000000000000000000000000000000000000000000000000000000000000000000000
310
00000000000000000000000000000000000000000000000000000000000000000000070000000000000000000000000000000000000000000000000000000000000000000000000000000000000000000000000000000000000000000000000000000000000000000000000000000700000000000000000000000000000000
310
00000000000000000000000000000000000000000000000000000000000000000000000000000000000000000000000000000000000000000000000000000000000000000000000000000000000000000000000000000007000000000000000000000000000000000000000000000000000000000000000000000000000000
310
00000000000000000000000000000000000000000000000000000000000000000000000007000000000000000000000000000000000000000000000000000000000000000000000000000000000000000000000000000000000000000000000000000000000000000000000000000000000000000000000000000000000000
310
00000000000000000000000000070000000000000000000000000000000000000000000000000000000000000000000000000000000000000000000000000000000000000000000000000000000000000000000000000000000700000000000000000000000000000000000000000000000000000000000000000000000000
310
00000000000000000000000000000000000000000000000000000000000000000000000000000000000000000000000000000000000000000000000000000000000007000000000000000000000000000000000000000000000000000000000000000000000000000000000000000000000000000000000000000000000000
310
00000000000000000000000000000007000000000000000000000000000000000000000000000000000000000000000000000000000000000000000000000000000000000000000000000000000000000000000000000000000000000000000000000000000000000000000000000000000000000000000700000000000000
310
00000000000000000000000000000000000000000000000007070707070707070707070707070000000000000000000000000000000000000000000000000000000000000700000000000000000000000000000000000000000000000000000000000000000000000000000000000000000000000000000000000000000000
310
00000000000000000000000000000000000000000000000000000000000000000000000000000000000000000007000000000000000000000000000000000000000000000000000000000000000000000000000000000000000000000000000000000000000000000000000000000000000000000000000000070000000000
310
00000000000000000000000000000000000000000000000000000000000000000000000000000000000000000000000000000000000000000000000000000000000000000000000000000000000000000000000000000000000000000000000000000700000000000000000000000000000000000000000000000000000000
310
07070007070707000000000000070707070707000000000000000000000000000000000000000000000000000000000700000000000000000000000000000000000000000000000000000000000000000000000000000000000000000000000000000000000000000000000000000000000000000000000000000000000000
310
00000000000000000000000000000000000000000000000007000000000000000000000000000000000000000000000000000000000007000707070707070707070707070707000700000000000000000000000000000000000000000000000000000000070000000000000000000000000000000000000000000000000000
310
00000000000000000000000000000000000000000000000000000000000000000000000000000000000000000000000000000000000000000000000000000000000000000000000000000000000700000000000000000000000000000000000000000000000000000000070700070707070707070707070707070707070000
310
00000000000000000000000000000000000000000000000000000700000000000000000000000000000000000000000000000000000000000000000000000000000000000000000000000000000000000000000000000000000000000000000000000000000000000000000000000000000000000000000000000000000000
310
00000007000000000000000000000000000000000000000000000000000000000707000707070707070707070707070707070700000000000000000000000000000000000000000000000000000000070000000000000000000000000000000000000000000000000000000000000000000000000000000000000000000000
310
00000000000000000000000000000000000000000000000000000000000000000000000000000000000000000000000000000000000000000700000000000000000000000000000000000000000000000000000000070700070707070707070707070707070707070000000000000000000000000000000000000000000000
310
00000000000700000000000000000000000000000000000000000000000000000000000000000000000000000000000000000000000000000000000000000000000000000000000000000000000000000000000000000000000000000000000000000000000000000000000000070000000000000000000000000000000000
310
00000000000000000000000007000707070707070707070707070707070700000000000000000000000000000000000000000000000000000000070000000000000000000000000000000000000000000000000000000000000000000000000000000000000000000000000000000000000000000000000000000000000000
310
00000000000000000000000000000000000000000000000000000000000000000000000700000000000000000000000000000000000000000000000000000000070700070707070707070707070707070707070000000000000000000000000000000000000000000000000000000007000000000000000000000000000000
310
00000000000000000000000000000000000000000000000000000000000000000000000000000000000000000000000000000000000000000000000000000000000000000000000000000000000000000000000000000000070000000000000000000000000000000000000000000000000000000000070000000707070707
310
07070707070707070700000000000000000000000000000000000000000000000000000000070000000000000000000000000000000000000000000000000000000000000000000000000000000000000000000000000000000000000000000000000000000000000000000000000000000000000000000000000000000000
310
00000000000000000000000000000700000000000000000000000000000000000000000000000000000000070700000007070707070707070707070707070000000000000000000000000000000000000000000000000000000007000000000000000000000000000000000000000000000000000000000000000000000000
310
00000000000000000000000000000000000000000000000000000000000000000000000000000000000000000000000000000000000000000000000000000000000000070000000000000000000000000000000000000000000000000000000007070000000707070707070707070707070707000000000000000000000000
310
00000000000000000000000000000000070000000000000000000000000000000000000000000000000000000000000000000000000000000000000000000000000000000000000000000000000000000000000000000000000000000000000000000000000000000000000000000000000000000000000007000000000000
310
00000000000000000000000000000000000000000000070700000007070707070707070707070707070000000000000000000000000000000000000000000000000000000007000000000000000000000000000000000000000000000000000000000000000000000000000000000000000000000000000000000000000000
310
00000000000000000000000000000000000000000000000000000000000000000000000000000000000000000000070000000000000000000000000000000000000000000000000000000007070000000707070707070707070707070707000000000000000000000000000000000000000000000000000000000700000000
310
00000000000000000000000000000000000000000000000000000000000000000000000000000000000000000000000000000000000000000000000000000000000000000000000000000000000000000000000000000000000000000000000000000007000000000000000000000000000000000000000000000000000000
310
00000700000007070707070707070707070707070000000000000000000000000000000000000000000000000000000007000000000000000000000000000000000000000000000000000000000000000000000000000000000000000000000000000000000000000000000000000000000000000000000000000000000000
310
00000000000000000000000000000000000000000000000000070000000000000000000000000000000000000000000000000000000007070007000707070707070707070707070707000000000000000000000000000000000000000000000000000000000700000000000000000000000000000000000000000000000000
310
00000000000000000000000000000000000000000000000000000000000000000000000000000000000000000000000000000000000000000000000000000000000000000000000000000000000007000000000000000000000000000000000000000000000000000000000000000707070707070707070707070707070700
310
00000000000000000000000000000000000000000000000000000007000000000000000000000000000000000000000000000000000000000000000000000000000000000000000000000000000000000000000000000000000000000000000000000000000000000000000000000000000000000000000000000000000000
310
00000000070000000000000000000000000000000000000000000000000000000000000007000707000007070707070707070707000000000000000000000000000000000000000000000000000000000700000000000000000000000000000000000000000000000000000000000000000000000000000000000000000000
310
00000000000000000000000000000000000000000000000000000000000000000000000000000000000000000000000000000000000000000007000000000000000000000000000000000000000000000000000000000000000700070700000700000000070707070700000000000000000000000000000000000000000000
310
00000000000007000000000000000000000000000000000000000000000000000000000000000000000000000000000000000000000000000000000000000000000000000000000000000000000000000000000000000000000000000000000000000000000000000000000000000700000000000000000000000000000000
310
00000000000000000000000000000007070707000007000000000707070707000000000000000000000000000000000000000000000000000000000700000000000000000000000000000000000000000000000000000000000000000000000000000000000000000000000000000000000000000000000000000000000000
310
00000000000000000000000000000000000000000000000000000000000000000000000007000000000000000000000000000000000000000000000000000000000000000707070700000700000000070707070700000000000000000000000000000000000000000000000000000000070000000000000000000000000000
310
00000000000000000000000000000000000000000000000000000000000000000000000000000000000000000000000000000000000000000000000000000000000000000000000000000000000000000000000000000000000700000000000000000000000000000000000000000000000000000000000000070007070000
310
07000000000707070707000000000000000000000000000000000000000000000000000000000700000000000000000000000000000000000000000000000000000000000000000000000000000000000000000000000000000000000000000000000000000000000000000000000000000000000000000000000000000000
310
00000000000000000000000000000007000000000000000000000000000000000000000000000000000000000000000707000700000707070707070707070700000000000000000000000000000000000000000000000000000000070000000000000000000000000000000000000000000000000000000000000000000000
310
00000000000000000000000000000000000000000000000000000000000000000000000000000000000000000000000000000000000000000000000000000000000000000700000000000000000000000000000000000000000000000000000000000000070707070707070707070707070707070000000000000000000000
310
00000000000000000000000000000000000700000000000000000000000000000000000000000000000000000000000000000000000000000000000000000000000000000000000000000000000000000000000000000000000000000000000000000000000000000000000000000000000000000000000000070000000000
310
00000000000000000000000000000000000000000000000000000707070007070707000000000007070700000000000000000000000000000000000000000000000000000000070000000000000000000000000000000000000000000000000000000000000000000000000000000000000000000000000000000000000000
310
00000000000000000000000000000000000000000000000000000000000000000000000000000000000000000000000700000000000000000000000000000000000000000000000000000000000000070707070000070700000000000000000000000000000000000000000000000000000000000000000000000007000000
310
00000000000000000000000000000000000000000000000000000000000000000000000000000000000000000000000000000000000000000000000000000000000000000000000000000000000000000000000000000000000000000000000000000000070000000000000000000000000000000000000000000000000000
310
00000000000707070700000707000000000000000000000000000000000000000000000000000000000000000000000000070000000000000000000000000000000000000000000000000000000000000000000000000000000000000000000000000000000000000000000000000000000000000000000000000000000000
310
00000000000000000000000000000000000000000000000000000700000000000000000000000000000000000000000000000000000000000000070707070000000000000000000000000000000000000000000000000000000000000000000000000000000007000000000000000000000000000000000000000000000000
310
00000000000000000000000000000000000000000000000000000000000000000000000000000000000000000000000000000000000000000000000000000000000000000000000000000000000000070000000000000000000000000000000000000000000000000000000000000000000707000000000000000000000000
310
00000000000000000000000000000000000000000000000000000000070000000000000000000000000000000000000000000000000000000000000000000000000000000000000000000000000000000000000000000000000000000000000000000000000000000000000000000000000000000000000000000000000000
310
00000000000700000000000000000000000000000000000000000000000000000000000000000000070000000000000000000000000000000000000000000000000000000000000000000000000000000007000000000000000000000000000000000000000000000000000000000000000000000000000000000000000000
310
00000000000000000000000000000000000000000000000000000000000000000000000000000000000000000000000000000000000000000000070000000000000000000000000000000000000000000000000000000000000000000000000000000000000000000000000000000000000000000000000000000000000000
310
00000000000000070000000000000000000000000000000000000000000000000000000000000000000000000000000000000000000000000000000000000000000000000000000000000000000000000000000000000000000000000000000000000000000000000000000000000007000000000000000000000000000000
310
00000000000000000000000000000000000000000000000000000000000000000000000000000000000000000000000000000000000000000000000007000000000000000000000000000000000000000000000000000000000000000000000000000000000000000000000000000000000000000000000000000000000000
310
00000000000000000000000000000000000000000000000000000000000000000000000000070000000000000000000000000000000000000000000000000000000000000000000000000000000000000000000000000000000000000000000000000000000000000000000000000000000700000000000000000000000000
310
00000000000000000000000000000000000000000000000000000000000000000000000000000000000000000000000000000000000000000000000000000000000000000000000000000000000000000000000000000000000007000000000000000000000000000000000000000000000000000000000000000000000000
310
00000000000000000000000000000000000000000000000000000000000000000000000000000007000000000000000000000000000000000000000000000000000000000000000000000000000000000000000000000000000000000000000000000000000000000000000000000000000000000000000000000000000000
310
00000000000000000000000000000000070000000000000000000000000000000000000000000000000000000000000000000000000000000000000000000000000000000000000000000000000000000000000000000000000000000700000000000000000000000000000000000000000000000000000000000000000000
310
00000000000000000000000000000000000000000000000000000000000000000000000000000000000000000000000000000000000000000000000000000000000000000007000000000000000000000000000000000000000000000000000000000000000000000000000000000000000000000000000000000000000000
310
00000000000000000000000000000000000007000000000000000000000000000000000000000000000000000000000000000000000000000000000000000000000000000000000000000000000000000000000000000000000000000000000000000000000000000000000000000000000000000000000000000700000000
310
00000000000000000000000000000000000000000000000000000000000000000000000000000000000000000000000000000000000000000000000000000000000000000000000700000000000000000000000000000000000000000000000000000000000000000000000000000000000000000000000000000000000000
310
00000000000000000000000000000000000000000000000000000000000000000000000000000000000000000000000007000000000000000000000000000000000000000000000000000000000000000000000000000000000000000000000000000000000000000000000000000000000000000000000000000000070000
310
00000000000000000000000000000000000000000000000000000000000000000000000000000000000000000000000000000000000000000000000000000000000000000000000000000000000000000000000000000000000000000000000000000000000707070707070707070707070707070707070707070707070707
310
07070707070707070707070707070707070707070707070707070707070707070707070707070707070707070707070707070700000000000000000000000000000000000000000000000000000000000000000000000000000000000000000000000000000000000000000000000000000000000000000000000000000000
310
00000000000000000000000000000000000000000000000000000000000000000000000000000000000000000000000000000000000000000000000000000000000000000000000000000000000000000000000000000000000000000000000000000000000000000000000000000000000000000000000000000000000000
310
00000000000000000000000000000000000000000000000000000000000000000000000000000000000000000000000000000000000000000000000000000000000000000000000000000000000000000000000000000000000000000000000000000000000000000000000000000000000000000000000000000000000000
310
00000000000000000000000000000000000000000000000000000000000000000000000000000000000000000000000000000000000000000000000000000000000000000000000000000000000000000000000000000000000000000000000000000000000000000000000000000000000000000000000000000000000000
310
00000000000000000000000000000000000000000000000000000000000000000000000000000000000000000000000000000000000000000000000000000000000000000000000000000000000000000000000000000000000000000000000000000000000000000000000000000000000000000000000000000000000000
310
00000000000000000000000000000000000000000000000000000000000000000000000000000000000000000000000000000000000000000000000000000000000000000000000000000000000000000000000000000000000000000000000000000000000000000000000000000000000000000000000000000000000000
310
00000000000000000000000000000000000000000000000000000000000000000000000000000000000000000000000000000000000000000000000000000000000000000000000000000000000000000000000000000000000000000000000000000000000000000000000000000000000000000000000000000000000000
310
00000000000000000000000000000000000000000000000000000000000000000000000000000000000000000000000000000000000000000000000000000000000000000000000000000000000000000000000000000000000000000000000000000000000000000000000000000000000000000000000000000000000000
310
00000000000000000000000000000000000000000000000000000000000000000000000000000000000000000000000000000000000000000000000000000000000000000000000000000000000000000000000000000000000000000000000000000000000000000000000000000000000000000000000000000000000000
310
00000000000000000000000000000000000000000000000000000000000000000000000000000000000000000000000000000000000000000000000000000000000000000000000000000000000000000000000000000000000000000000000000000000000000000000000000000000000000000000000000000000000000
310
00000000000000000000000000000000000000000000000000000000000000000000000000000000000000000000000000000000000000000000000000000000000000000000000000000000000000000000000000000000000000000000000000000000000000000000000000000000000000000000000000000000000000
310
00000000000000000000000000000000000000000000000000000000000000000000000000000000000000000000000000000000000000000000000000000000000000000000000000000000000000000000000000000000000000000000000000000000000000000000000000000000000000000000000000000000000000
310
00000000000000000000000000000000000000000000000000000000000000000000000000000000000000000000000000000000000000000000000000000000000000000000000000000000000000000000000000000000000000000000000000000000000000000000000000000000000000000000000000000000000000
310
00000000000000000000000000000000000000000000000000000000000000000000000000000000000000000000000000000000000000000000000000000000000000000000000000000000000000000000000000000000000000000000000000000000000000000000000000000000000000000000000000000000000000
310
00000000000000000000000000000000000000000000000000000000000000000000000000000000000000000000000000000000000000000000000000000000000000000000000000000000000000000000000000000000000000000000000000000000000000000000000000000000000000000000000000000000000000
310
00000000000000000000000000000000000000000000000000000000000000000000000000000000000000000000000000000000000000000000000000000000000000000000000000000000000000000000000000000000000000000000000000000000000000000000000000000000000000000000000000000000000000
310
00000000000000000000000000000000000000000000000000000000000000000000000000000000000000000000000000000000000000000000000000000000000000000000000000000000000000000000000000000000000000000000000000000000000000000000000000000000000000000000000000000000000000
310
00000000000000000000000000000000000000000000000000000000000000000000000000000000000000000000000000000000000000000000000000000000000000000000000000000000000000000000000000000000000000000000000000000000000000000000000000000000000000000000000000000000000000
310
00000000000000000000000000000000000000000000000000000000000000000000000000000000000000000000000000000000000000000000000000000000000000000000000000000000000000000000000000000000000000000000000000000000000000000000000000000000000000000000000000000000000000
310
00000000000000000000000000000000000000000000000000000000000000000000000000000000000000000000000000000000000000000000000000000000000000000000000000000000000000000000000000000000000000000000000000000000000000000000000000000000000000000000000000000000000000
310
00000000000000000000000000000000000000000000000000000000000000000000000000000000000000000000000000000000000000000000000000000000000000000000000000000000000000000000000000000000000000000000000000000000000000000000000000000000000000000000000000000000000000
310
00000000000000000000000000000000000000000000000000000000000000000000000000000000000000000000000000000000000000000000000000000000000000000000000000000000000000000000000000000000000000000000000000000000000000000000000000000000000000000000000000000000000000
310
00000000000000000000000000000000000000000000000000000000000000000000000000000000000000000000000000000000000000000000000000000000000000000000000000000000000000000000000000000000000000000000000000000000000000000000000000000000000000000000000000000000000000
310
00000000000000000000000000000000000000000000000000000000000000000000000000000000000000000000000000000000000000000000000000000000000000000000000000000000000000000000000000000000000000000000000000000000000000000000000000000000000000000000000000000000000000
310
00000000000000000000000000000000000000000000000000000000000000000000000000000000000000000000000000000000000000000000000000000000000000000000000000000000000000000000000000000000000000000000000000000000000000000000000000000000000000000000000000000000000000
310
00000000000000000000000000000000000000000000000000000000000000000000000000000000000000000000000000000000000000000000000000000000000000000000000000000000000000000000000000000000000000000000000000000000000000000000000000000000000000000000000000000000000000
310
00000000000000000000000000000000000000000000000000000000000000000000000000000000000000000000000000000000000000000000000000000000000000000000000000000000000000000000000000000000000000000000000000000000000000000000000000000000000000000000000000000000000000
310
000000000000000000000000000000000000000000000000000000000000000000000000000000000000000000000000000000000000000000000000000000000000000000000000000000000000000000000000000000000000000000000000000000000000000000000000
  0
ENDSEC
  0
EOF
